<?xml version="1.0" standalone="no"?>
<!DOCTYPE svg PUBLIC "-//W3C//DTD SVG 1.1//EN" "http://www.w3.org/Graphics/SVG/1.1/DTD/svg11.dtd" >
<svg xmlns="http://www.w3.org/2000/svg">
<metadata><json><![CDATA[{
	"author": "LineIcons",
	"description": "Handcrafted Line Icons for Modern User Interfaces of Web, Android, iOS, and Desktop App Projects",
	"version": "2.0",
	"copyright": "https://lineicons.com/license/",
	"license": "Creative Commons",
	"url": "https://lineicons.com/"
}]]></json></metadata>
<defs>
  <font id="LineIconsPro Regular" horiz-adv-x="256">
    <font-face font-family="LineIconsPro Regular"
      units-per-em="144" ascent="128"
      descent="16" />
    <missing-glyph horiz-adv-x="0" />
    <glyph glyph-name="500px"
      unicode="&#xEA02;"
      horiz-adv-x="144" d="M80.55 112.475C72 112.475 63.225 110.675 56.475 107.975C55.8 107.75 55.35 107.075 55.35 106.4C55.35 105.725 55.575 104.6 56.025 103.475C56.475 102.35 57.6 99.65 59.625 100.55C66.375 103.025 73.8 104.6 80.55 104.6C88.2 104.6 95.625 103.025 102.825 100.1C108.45 97.625 113.625 94.25 119.475 89.3C119.925 88.85 120.375 88.85 120.825 88.85C121.95 88.85 123.075 89.975 123.975 90.875C125.55 92.675 126.45 94.025 125.1 95.375C119.7 100.55 113.625 104.375 106.2 107.525C97.875 110.9 89.325 112.475 80.55 112.475zM35.55 33.275S36.225 31.025 36.675 30.125C39.15 24.5 42.525 19.55 46.8 15.05C51.075 10.775 56.25 7.4 61.875 4.925C67.725 2.45 73.8 1.325 80.325 1.325S92.925 2.675 98.775 4.925C104.4 7.4 109.35 10.775 113.85 15.05C118.125 19.325 121.5 24.5 123.975 30.125C126.45 35.975 127.575 42.05 127.575 48.575S126.225 61.175 123.975 67.025C121.5 72.65 118.125 77.6 113.85 82.1C109.575 86.375 104.4 89.75 98.775 92.225C92.925 94.7 86.85 95.825 80.325 95.825C73.8 95.825 67.5 94.475 61.65 92.225C57.15 90.2 49.275 85.25 44.775 80.525V119.225H110.025C112.5 119.225 112.5 122.6 112.5 123.725S112.5 128.225 110.025 128.225L39.375 128C37.35 128 36.225 126.425 36.225 124.85V70.175C36.225 68.375 38.475 67.25 40.5 66.8C44.55 65.9 45.45 67.25 46.35 68.6L46.575 68.825C48.15 71.075 52.65 75.8 52.65 75.8C59.85 83 69.525 87.05 79.875 87.05S99.9 83 107.1 75.8C114.3 68.6 118.35 58.925 118.35 48.575S114.3 28.55 107.1 21.35C99.9 14.15 90 10.1 79.65 10.1C72.675 10.1 65.925 11.9 60.3 15.5V48.8C60.3 53.3 62.325 58.025 65.475 61.625C69.075 65.675 74.25 68.15 79.65 68.15S90 66.125 93.825 62.525C97.425 58.925 99.45 53.975 99.45 48.8C99.45 37.775 90.675 29 79.65 29C77.4 29 73.575 29.9 73.35 29.9C71.1 30.575 70.2 27.425 69.75 26.525C68.625 22.475 70.425 21.8 70.65 21.575C74.25 20.45 76.5 20.225 79.65 20.225C95.4 20.225 108.225 33.05 108.225 48.8C108.225 64.325 95.4 77.15 79.65 77.15C72 77.15 64.8 74.225 59.4 68.825C54.225 63.65 51.3 56.9 51.3 50.15V22.7C48.375 26.075 45.45 31.025 43.425 36.2C42.75 38.225 40.95 37.775 38.7 37.1C38.025 36.65 34.875 35.75 35.55 33.275zM126 8.3C124.875 9.425 124.2 9.875 123.3 10.1C122.625 10.325 121.95 10.1 121.275 9.65L120.825 9.2C115.65 4.025 109.575 -0.25 102.825 -2.95C95.85 -5.875 88.425 -7.45 80.55 -7.45C72.9 -7.45 65.475 -5.875 58.275 -2.95C51.525 -0.025 45.45 4.025 40.275 9.2C34.875 14.6 30.825 20.675 28.125 27.2C25.65 33.5 24.75 38.45 24.525 40.025V40.475C24.075 42.275 22.5 42.5 20.025 42.05C18.9 41.825 15.975 41.375 16.2 39.125C17.1 33.95 18.45 28.775 20.475 24.05C23.85 16.175 28.575 9.2 34.425 3.35C40.5 -2.725 47.475 -7.45 55.125 -10.6C63.225 -13.975 71.775 -15.775 80.55 -15.775S97.875 -13.975 105.975 -10.6C113.85 -7.225 120.825 -2.5 126.675 3.35L127.125 3.8C128.025 4.475 128.7 5.6 126 8.3zM69.075 41.15C69.075 40.25 69.975 39.35 70.425 38.9L70.65 38.675C71.55 37.775 72.45 37.325 73.125 37.325C73.8 37.325 74.25 37.55 74.25 37.775C74.7 38.225 79.2 42.725 79.425 43.175L84.375 38.225C84.825 37.775 85.275 37.55 85.95 37.325C86.85 37.325 87.525 37.775 88.425 38.675C90.675 40.925 89.55 42.05 88.875 42.725L83.925 47.675L89.1 53.075C90.225 54.425 89.325 55.55 88.2 56.675C86.625 58.25 85.275 58.475 84.375 57.8L79.2 52.625L74.25 57.8C74.025 58.025 73.575 58.25 73.125 58.25C72.45 58.25 71.55 57.8 70.65 56.9C69.075 55.325 68.625 54.2 69.525 53.3L74.7 48.125L69.75 42.5C69.3 42.05 69.075 41.6 69.075 41.15z" />
    <glyph glyph-name="adobe"
      unicode="&#xEA03;"
      horiz-adv-x="144" d="M90.675 116.075H144V-3.85L90.675 116.075zM53.325 116.075H0V-3.85L53.325 116.075zM72 71.525L105.525 -4.075H82.8L73.125 20H48.6L72 71.525z" />
    <glyph glyph-name="airbnb"
      unicode="&#xEA04;"
      horiz-adv-x="144" d="M72 18.425C63.9 28.55 59.175 37.55 57.6 45.2C50.4 73.55 93.825 73.55 86.625 45.2C84.825 37.325 79.875 28.325 72 18.425zM116.325 -5.2C102.825 -11.05 89.325 -1.6 78.075 11C111.375 52.85 92.925 75.35 72 75.35C54.45 75.35 44.55 60.5 48.375 42.95C50.625 33.5 56.475 22.925 65.925 11C55.575 -0.475 46.575 -5.875 38.475 -6.55C22.5 -9.025 9.9 6.5 15.75 22.7C20.7 35.3 51.75 96.95 53.1 100.325C58.05 110 61.2 118.775 72 118.775C82.35 118.775 85.95 110.45 91.35 99.425C103.05 76.925 120.15 42.5 128.25 22.7C132.525 12.125 127.8 -0.25 116.325 -5.2zM131.625 38.675C90 126.65 87.75 128 72 128C57.375 128 51.075 117.875 44.775 104.6C10.575 36.425 7.425 26.75 6.975 25.85C-1.125 3.575 15.75 -16 35.775 -16C42.75 -16 55.35 -13.975 72 4.025C90.9 -16.45 104.625 -16 108.225 -16C128.475 -16 145.125 3.575 137.025 25.85C137.025 27.2 131.625 38.45 131.625 38.675z" />
    <glyph glyph-name="amazon-original"
      unicode="&#xEA05;"
      horiz-adv-x="144" d="M127.8 22.925C110.025 15.5 90.9 11.9 73.35 11.9C47.7 11.675 22.5 18.875 2.25 30.8C0.45 31.925 -0.9 30.125 0.675 28.55C19.35 11.675 44.325 1.325 71.775 1.325C91.575 1.325 114.3 7.625 130.05 19.1C132.75 21.125 130.5 24.05 127.8 22.925zM143.325 31.7C141.525 33.95 126.9 35.525 117.9 29.45C116.55 28.55 116.775 27.2 118.35 27.2C123.3 27.875 134.775 29.225 136.8 26.525C138.825 23.825 134.55 13.475 132.75 8.525C132.0750000000001 7.175 133.425 6.5 134.775 7.625C143.1 14.825 145.35 29.675 143.325 31.7zM79.2 82.325C71.775 81.65 61.65 80.975 54.675 77.825C46.575 74.225 40.725 67.025 40.725 56.45C40.725 42.725 49.275 35.975 60.3 35.975C69.525 35.975 74.7 38.225 81.9 45.425C84.15 42.05 85.05 40.25 89.325 36.65C90.225 36.2 91.575 36.2 92.475 36.875C95.175 39.125 99.9 43.4 102.6 45.425C103.725 46.325 103.5 47.675 102.6 48.8C100.35 52.175 97.65 54.65 97.65 60.95V81.425C97.65 89.975 98.325 98.075 91.8 103.925C86.85 108.875 78.525 110.45 72 110.45C59.4 110.45 45.675 105.725 42.75 90.425C42.525 88.85 43.65 87.95 44.55 87.725L57.15 86.375C58.5 86.375 59.175 87.725 59.4 88.625C60.525 94.025 64.8 96.5 69.975 96.5C72.675 96.5 75.825 95.6 77.4 93.125C79.2 90.425 78.975 86.6 78.975 83.675L79.2 82.325zM76.725 55.1C74.7 51.5 71.325 49.25 67.725 49.25C62.775 49.25 59.625 53.075 59.625 58.7C59.625 69.725 69.75 71.75 78.975 71.75V68.825C79.2 63.875 79.2 59.6 76.725 55.1z" />
    <glyph glyph-name="amazon-pay"
      unicode="&#xEA06;"
      horiz-adv-x="144" d="M0 39.575C0.45 40.475 1.125 40.7 2.25 40.25C4.725 38.9 7.2 37.55 9.675 36.425C19.125 31.7 29.25 28.1 39.6 25.625C44.55 24.5 49.5 23.6 54.45 22.925C61.875 22.025 69.3 21.575 76.725 21.8C80.775 21.8 84.825 22.25 89.1 22.7C102.375 24.275 115.2 27.65 127.575 32.825C128.25 33.05 128.925 33.275 129.825 33.05C131.4 32.6 131.85 31.025 130.725 29.675C130.05 29 129.375 28.55 128.475 27.875C121.275 22.925 113.4 19.325 105.075 16.625C99.225 14.825 93.375 13.475 87.3 12.575C83.25 11.9 78.975 11.45 74.7 11.45H65.925C61.875 11.675 58.05 12.125 54 12.8C47.475 13.925 41.175 15.5 35.1 17.75C22.5 22.25 10.8 29.225 0.9 38.225C0.45 38.675 0.225 39.125 -0.225 39.575H0zM37.125 101L36 100.775C32.85 100.325 29.7 99.2 27 97.175C26.325 96.725 25.875 96.275 25.425 95.825V96.05C25.425 96.725 25.2 97.4 25.2 98.075C24.975 99.2 24.525 99.65 23.4 99.65H20.7C19.125 99.65 18.675 99.425 18.675 97.625V47.675C18.675 47 19.125 46.55 19.8 46.55H24.75C25.425 46.55 25.875 47 25.875 47.675V65.45C26.1 65.225 26.325 65.225 26.325 65C30.6 61.4 35.325 60.275 40.725 61.4C45.45 62.3 48.825 65.225 51.075 69.725C52.65 73.1 53.325 76.475 53.55 80.075C53.775 84.125 53.325 87.95 51.75 91.775C49.725 96.5 46.35 99.425 41.4 100.55C40.725 100.775 39.825 100.775 39.15 101H37.125zM26.1 91.1C26.1 91.325 26.325 91.775 26.55 91.775C29.7 94.025 33.3 95.15 37.35 94.925C40.95 94.7 43.65 92.9 45.225 88.85C46.125 86.375 46.35 83.675 46.35 80.975C46.35 78.5 46.125 76.025 45.45 73.775C43.875 68.825 40.275 66.8 35.325 67.025C31.95 67.25 29.25 68.375 26.55 70.4C26.325 70.625 26.1 70.85 26.1 71.075V80.975V91.1zM74.475 101H73.8C71.55 101 69.3 100.55 67.05 100.1C65.7 99.65 64.125 99.2 62.775 98.75C61.875 98.525 61.425 97.85 61.425 96.95V94.7C61.425 93.575 61.875 93.35 63 93.575C64.8 94.025 66.6 94.475 68.625 94.925C71.55 95.375 74.475 95.6 77.4 95.15C78.975 94.925 80.325 94.475 81.45 93.125C82.35 92 82.575 90.65 82.8 89.3V83.225H82.575C80.1 83.9 77.625 84.125 74.925 84.35C72.225 84.575 69.525 84.35 67.05 83.45C63.9 82.325 61.65 80.525 60.075 77.6C58.95 75.35 58.725 72.875 59.175 70.4C59.625 67.025 61.2 64.55 64.125 62.975C66.825 61.4 69.975 61.175 73.125 61.625C76.725 62.075 79.875 63.65 82.575 65.9C82.8 65.9 82.8 66.125 83.025 66.125C83.25 65.225 83.25 64.325 83.475 63.425C83.7 62.75 84.15 62.3 84.825 62.3H88.65C89.325 62.3 89.775 62.75 89.775 63.425V88.85C89.775 89.975 89.775 90.875 89.55 92C89.1 95.15 87.75 97.625 85.05 99.2C83.475 100.1 81.675 100.55 79.875 100.775C78.975 101 78.0750000000001 101 77.4 101H74.475zM82.8 70.85C82.8 70.625 82.575 70.4 82.35 70.175C79.65 68.375 76.725 67.025 73.575 66.575C72.225 66.35 70.875 66.575 69.525 67.025C68.175 67.475 67.05 68.6 66.6 70.175C66.15 71.75 66.15 73.325 66.6 74.675C67.275 76.7 68.625 77.825 70.425 78.275C72.225 78.95 74.25 78.95 76.275 78.725C78.3 78.5 80.1 78.275 82.125 77.825C82.575 77.825 82.575 77.6 82.575 77.15V73.775C82.8 73.1 82.8 71.975 82.8 70.85zM144 40.475C143.775 41.6 142.875 42.05 141.75 42.5C140.175 42.95 138.375 43.4 136.8 43.4C133.65 43.625 130.5 43.625 127.575 42.95C124.2 42.275 121.05 41.15 118.125 39.35C117.675 39.125 117.45 38.9 117.225 38.45C117 38.225 117 37.775 117 37.55C117 37.1 117.45 37.1 117.9 37.1H118.35L123.75 37.775C126.45 38 129.15 38.225 131.85 38C132.975 38 134.1 37.775 135.225 37.325C136.35 37.1 137.025 36.2 137.025 34.85C137.025 33.05 136.8 31.25 136.125 29.45C135.225 25.85 133.875 22.25 132.3 18.875C132.3 18.65 132.075 18.425 132.075 18.2C131.85 17.525 132.3 17.075 132.975 17.3C133.425 17.3 133.875 17.525 134.1 17.975C135.225 18.875 136.125 20 137.025 21.125C139.95 24.95 141.75 29.45 142.875 34.175C143.1 35.075 143.1 35.975 143.325 36.65L144 40.475zM112.95 69.5C109.8 77.825 106.875 86.375 103.725 94.7C103.275 96.05 102.825 97.4 102.15 98.75C101.925 99.425 101.475 99.875 100.575 99.875H95.175C94.5 99.875 94.275 99.425 94.5 98.75C94.725 98.3 94.725 97.85 94.95 97.4C99.675 85.925 104.175 74.45 108.9 63.2C109.35 62.3 109.35 61.4 108.9 60.5C108.225 58.7 107.55 56.9 106.65 55.325C105.975 53.75 104.85 52.625 103.05 52.175C102.15 51.5 100.8 51.5 99.675 51.5C99 51.5 98.55 51.725 97.875 51.725C96.975 51.725 96.75 51.5 96.75 50.6V48.35C96.75 47 97.2 46.55 98.55 46.325C99.9 46.1 101.25 45.875 102.6 45.875C106.65 45.875 109.8 47.45 111.825 50.825C112.725 52.175 113.4 53.75 114.075 55.1C119.7 69.275 125.1 83.225 130.725 97.4C130.95 97.85 130.95 98.3 131.175 98.75C131.175 99.425 130.95 99.875 130.275 99.875H125.55C124.65 99.875 123.975 99.425 123.75 98.75C123.525 98.525 123.525 98.075 123.3 97.85L114.975 74C114.3 72.2 113.85 70.625 113.175 68.825C112.95 69.05 112.95 69.275 112.95 69.5z" />
    <glyph glyph-name="amazon"
      unicode="&#xEA07;"
      horiz-adv-x="144" d="M55.575 42.275C58.5 38.9 62.1 37.325 66.15 37.325C66.6 37.325 67.275 37.325 68.4 37.55L69.3 37.775C74.025 38.9 77.85 42.05 80.325 46.55C81.45 48.575 82.35 50.6 82.8 52.625C83.25 54.425 83.7 56.225 83.7 58.025V71.525H78.075C72.9 71.525 69.075 71.075 66.6 70.4C57.375 67.925 52.425 61.625 52.425 52.85C51.975 48.575 53.1 44.975 55.575 42.275zM69.075 59.375C69.525 59.6 70.425 59.6 72 59.825V57.8C72 57.125 71.775 56.225 71.55 55.1C71.325 54.2 70.875 53.075 70.2 51.95C69.075 49.925 67.725 49.25 66.825 48.8C66.6 48.8 66.15 48.8 65.7 48.575C65.025 48.575 64.575 48.8 64.125 49.475C63.45 50.375 63.225 51.275 63.225 52.625C63.225 55.775 64.125 58.025 69.075 59.375zM33.525 71.975C29.475 66.35 27.675 59.6 27.675 51.725C27.675 41.6 30.825 33.725 36.675 28.325C42.525 22.925 50.175 20 59.175 20C64.575 20 69.3 20.675 73.125 21.8C77.85 23.15 82.575 25.85 87.075 29.675C87.525 29.225 87.75 28.775 88.2 28.55L88.65 28.1L90.45 26.3C91.575 25.175 92.7 24.05 94.275 22.7L94.725 22.25L95.4 22.025C96.75 21.35 98.325 20.9 99.9 20.9C101.925 20.9 103.725 21.575 105.525 22.7C105.975 23.15 106.875 23.6 109.35 25.85C111.6 27.65 114.75 30.35 118.8 33.725C121.05 35.3 122.4 37.55 122.4 40.25C122.4 41.825 121.725 43.625 120.825 45.425L120.375 46.1C118.8 48.125 117.675 49.475 117 50.6C117 50.6 116.55 51.275 115.875 53.3C114.975 54.65 114.75 56.225 114.75 58.25V93.125C114.75 94.7 114.75 96.275 114.525 97.175C114.3 100.325 114.075 101.45 113.85 102.125L113.625 102.575L112.95 105.275L112.5 106.85C112.05 108.2 111.6 109.325 110.925 110.675C110.25 111.575 109.575 112.7 108.675 114.05C107.55 115.4 106.65 116.75 105.3 117.875L105.075 118.1C97.875 124.625 87.75 128 75.15 128H71.1C61.425 127.55 52.875 125.075 45.45 120.35C37.8 115.4 32.85 107.975 30.825 98.3C30.375 97.175 30.375 96.275 30.375 95.6C30.375 92.225 32.175 88.4 37.575 87.5L52.65 85.7C51.525 85.25 50.625 85.025 49.725 84.575C42.975 81.65 37.35 77.6 33.525 71.975zM72 78.5C74.25 78.725 77.4 78.95 81.9 79.4L89.775 80.075V87.725C89.775 95.375 88.875 100.1 86.625 103.25C84.375 106.4 80.1 110 72.225 110H70.425C66.15 109.55 62.55 108.2 59.4 105.95C56.25 103.7 54 100.55 52.875 96.725L42.075 98.075C43.65 103.7 46.8 107.975 51.3 110.9C57.15 114.5 63.9 116.525 71.325 116.75H75.15C85.05 116.75 92.25 114.5 97.65 109.775C98.325 109.1 99 108.2 99.675 107.3C100.35 106.175 101.025 105.5 101.475 104.825C101.475 104.6 101.7 103.925 101.925 103.475C101.925 103.25 102.15 102.8 102.15 102.575C102.6 101 102.825 99.875 103.05 99.2C103.05 98.975 103.275 98.075 103.5 96.275C103.5 95.375 103.725 94.25 103.725 93.125V58.25C103.725 55.1 104.175 52.175 105.075 49.7C105.975 46.775 107.1 44.975 108.225 43.4C108.675 42.725 109.35 42.05 110.025 41.15C106.65 38.45 104.175 36.2 102.15 34.625C101.25 33.95 100.575 33.275 100.125 32.825L98.325 34.625L96.975 35.975C96.525 36.425 96.3 36.65 96.075 37.1C96.075 37.1 95.625 37.55 94.5 39.125L94.275 39.35C93.375 40.475 92.7 41.375 92.475 41.825L88.425 47.675L83.7 42.5C78.975 37.55 74.475 34.4 69.975 33.05C67.05 32.15 63.45 31.7 59.175 31.7C53.1 31.7 48.15 33.5 44.325 37.1C40.725 40.475 38.925 45.425 38.925 52.175C38.925 57.575 40.275 62.3 42.75 65.9C45.45 69.5 49.05 72.425 54 74.225C58.95 76.025 65.025 77.6 72 78.5zM61.425 87.95C62.55 89.3 63.45 90.875 63.9 92.9C64.35 94.475 65.025 95.825 66.15 96.5C67.725 97.625 69.525 98.3 71.55 98.525H72.45C75.825 98.525 76.95 97.4 77.625 96.725C77.625 96.725 78.525 95.375 78.75 90.2C75.375 89.975 72.675 89.75 70.65 89.525C67.5 89.3 64.35 88.625 61.425 87.95zM128.025 4.25C127.35 5.375 126.225 5.6 125.1 5.15C124.65 4.925 124.2 4.7 123.3 4.475C122.4 4.025 121.95 4.025 121.5 3.8C105.525 -2.275 89.775 -5.2 73.35 -5.2C48.825 -5.2 26.55 0.875 5.625 12.8C4.725 13.25 4.05 13.25 3.6 12.575C3.375 12.35 3.375 12.125 3.375 11.9C3.375 11.45 3.6 11 4.05 10.775C13.05 2.675 23.625 -3.85 35.1 -8.35C46.575 -12.85 58.95 -15.1 71.775 -15.1C80.1 -15.1 88.65 -13.975 97.65 -11.725C106.425 -9.25 114.3 -6.1 121.5 -2.05C123.975 -0.7 125.775 0.65 127.125 1.775C128.475 2.45 128.7 3.125 128.025 4.25zM138.825 13.7C138.15 14.6 135.9 15.275 132.075 15.5C131.4 15.725 130.5 15.725 129.6 15.725C126.675 15.725 123.525 15.275 120.375 14.375C118.575 13.925 116.55 13.025 114.3 11.45C113.85 11 113.85 10.775 113.625 10.325C113.625 10.1 113.4 9.875 113.4 9.875C113.4 9.65 113.4 9.425 113.625 9.425C113.85 9.2 114.075 9.2 114.75 9.2C116.55 9.425 118.35 9.65 120.375 9.875C122.175 10.1 123.975 10.1 125.325 10.1C129.15 10.1 131.4 9.65 132.3 8.525C132.75 8.075 132.75 7.4 132.75 6.5C132.75 3.8 131.175 -1.375 128.025 -8.575C127.8 -9.25 127.8 -9.7 128.475 -9.925C128.7 -9.925 128.925 -10.15 128.925 -10.15C129.375 -10.15 129.6 -9.925 130.05 -9.7C132.75 -7.225 135 -4.075 136.8 -0.025C138.6 3.8 139.275 7.4 139.275 10.325V11.225C139.275 12.35 139.05 13.025 138.825 13.7z" />
    <glyph glyph-name="angellist"
      unicode="&#xEA08;"
      horiz-adv-x="144" d="M106.65 67.475C110.025 76.7 119.475 103.25 119.475 111.575C119.475 119 114.975 125.3 107.1 125.3C94.5 125.3 83.25 88.4 79.875 79.4C76.95 87.5 64.35 128 53.1 128C44.325 128 40.275 121.475 40.275 113.375C40.275 103.475 49.95 77.6 53.325 67.7C51.525 68.375 49.725 68.825 47.7 68.825C41.175 68.825 34.2 60.725 34.2 53.975C34.2 51.5 35.55 47.9 36.45 45.65C26.1 42.725 22.05 35.975 22.05 25.4C22.05 5.15 41.175 -16.45 68.4 -16.45C101.475 -16.45 122.175 8.525 122.175 40.7C121.95 53.075 120.15 64.1 106.65 67.475zM96.75 97.625C97.875 101 102.6 115.625 107.1 115.625C109.575 115.625 110.25 113.15 110.25 111.125C110.25 105.95 99.225 76.25 96.975 69.5L87.3 71.3L96.75 97.625zM49.05 114.5C49.05 117.875 53.1 127.325 62.1 101.225L71.775 73.1C67.275 73.55 63.9 74 61.875 72.65C58.725 80.75 49.05 106.175 49.05 114.5zM48.375 59.375C56.7 59.375 67.275 32.825 67.275 29.225C67.275 27.875 65.925 26.075 64.35 26.075C58.5 26.075 42.75 47.675 42.75 53.525C42.75 55.55 46.125 59.375 48.375 59.375zM100.125 6.95C92.025 -2.05 81.45 -6.775 69.3 -6.775C52.65 -6.775 39.375 2.45 33.075 17.975C28.35 30.125 34.2 37.1 38.925 37.1C42.075 37.1 54.225 20.225 54.225 16.625C54.225 15.275 51.975 14.375 50.85 14.375C46.35 14.375 44.55 18.65 36.45 28.775C28.125 20.45 42.3 4.25 52.875 4.25C60.3 4.25 65.025 11 63.675 16.175C64.8 16.175 65.925 16.175 67.05 16.4C67.275 8.75 69.525 -0.25 78.75 -0.925C78.75 -0.7 79.425 1.1 79.425 1.1C79.425 6.05 76.5 10.325 76.5 15.275C76.5 23.15 82.575 31.025 88.875 35.525C91.125 37.325 93.825 38.225 96.525 39.125C99.225 40.25 102.15 41.375 104.175 43.4C103.95 46.55 102.6 49.25 99.45 49.25C91.575 49.25 65.475 48.125 65.475 60.5C65.475 62.3 65.475 64.1 70.425 64.1C79.425 64.1 102.6 61.85 109.35 56C114.075 51.5 115.65 24.275 100.125 6.95zM72.45 42.5C75.15 41.6 78.075 41.375 80.775 40.7C78.75 39.125 76.725 37.325 75.15 35.3C74.25 37.775 73.35 40.025 72.45 42.5z" />
    <glyph glyph-name="android-original"
      unicode="&#xEA09;"
      horiz-adv-x="144" d="M32.175 22.25C32.175 16.85 36.45 12.575 41.85 12.575H48.15V-7C48.15 -11.95 52.2 -16 57.15 -16S66.15 -11.95 66.15 -7V12.575H78.075V-7C78.075 -11.95 82.125 -16 87.075 -16S96.075 -11.95 96.075 -7V12.575H102.375C107.775 12.575 112.05 16.85 112.05 22.25V79.625H32.175V22.25zM91.575 114.725L97.875 125.975C98.325 126.65 98.1 127.325 97.425 127.775C97.2 128 96.975 128 96.75 128C96.3 128 95.85 127.775 95.625 127.325L89.325 115.85C84.15 118.1 78.3 119.45 72.225 119.45S60.3 118.1 55.125 115.85L48.825 127.325C48.375 128 47.7 128.225 47.025 127.775C46.35 127.325 46.125 126.65 46.575 125.975L52.875 114.725C40.725 108.425 32.625 96.5 32.625 82.775H112.05C111.825 96.5 103.5 108.425 91.575 114.725zM53.775 97.4C51.975 97.4 50.4 98.975 50.4 100.775S51.975 104.15 53.775 104.15S57.15 102.575 57.15 100.775C56.925 98.975 55.575 97.4 53.775 97.4zM90.225 97.4C88.425 97.4 86.85 98.975 86.85 100.775S88.425 104.15 90.225 104.15S93.6 102.575 93.6 100.775S92.25 97.4 90.225 97.4zM20.025 81.2C15.075 81.2 11.025 77.15 11.025 72.2V35.075C11.025 30.125 15.075 26.075 20.025 26.075S29.025 30.125 29.025 35.075V72.425C29.025 77.15 24.975 81.2 20.025 81.2zM123.975 81.2C119.025 81.2 114.975 77.15 114.975 72.2V35.075C114.975 30.125 119.025 26.075 123.975 26.075S132.975 30.125 132.975 35.075V72.425C132.75 77.15 128.925 81.2 123.975 81.2z" />
    <glyph glyph-name="android"
      unicode="&#xEA0A;"
      horiz-adv-x="144" d="M58.275 98.075A3.1499999999999995 3.1499999999999995 0 0 1 64.575 98.075A3.1499999999999995 3.1499999999999995 0 0 1 58.275 98.075M77.4 98.075A3.1499999999999995 3.1499999999999995 0 0 1 83.7 98.075A3.1499999999999995 3.1499999999999995 0 0 1 77.4 98.075M122.625 85.25C121.05 85.25 119.475 85.025 118.125 84.575L117 88.175C114.3 96.275 109.8 103.25 103.725 108.65L111.825 117.425C113.85 119.675 113.85 123.275 111.6 125.3C109.35 127.325 105.75 127.325 103.725 125.075L94.5 115.175C87.975 118.55 80.55 120.575 72.9 120.575C64.8 120.575 57.15 118.55 50.4 114.725L40.5 125.075C38.475 127.325 34.875 127.55 32.625 125.3C30.375 123.275 30.15 119.675 32.4 117.425L41.175 107.975C35.55 102.575 31.05 95.825 28.575 87.95L27.225 83.9C25.425 84.575 23.4 85.025 21.375 85.025C13.275 85.25 6.75 78.725 6.75 70.625V47.9C6.75 40.025 13.275 33.5 21.375 33.5H21.6C25.425 33.5 29.025 35.075 31.725 37.55V22.025C31.725 19.1 33.525 16.625 36.225 15.95V0.875C36.225 -7.225 42.75 -13.75 50.85 -13.75H51.075C59.175 -13.75 65.7 -7.225 65.7 0.875V15.5H79.2V0.875C79.2 -7.225 85.725 -13.75 93.825 -13.75H94.05C102.15 -13.75 108.675 -7.225 108.675 0.875V15.5H108.9C112.5 15.5 115.425 18.425 115.425 22.025V35.75C117.675 34.4 120.375 33.5 123.3 33.5H123.525C131.625 33.5 138.15 40.025 138.15 48.125V70.625C137.25 78.725 130.725 85.25 122.625 85.25zM102.825 92H42.525C48.6 102.575 60.075 109.1 72.675 109.1C85.275 109.1 96.525 102.575 102.825 92zM24.75 48.125C24.75 46.325 23.175 44.75 21.375 44.75S18 46.325 18 48.125V70.625C18 72.425 19.575 74 21.375 74S24.75 72.425 24.75 70.625V48.125zM54 0.875C54 -0.925 52.425 -2.5 50.625 -2.5H50.4C48.6 -2.5 47.025 -0.925 47.025 0.875V15.5H53.775V0.875zM65.25 26.75H42.75V80.75H103.5V26.75H65.25zM96.75 0.875C96.75 -0.925 95.175 -2.5 93.375 -2.5H93.15C91.35 -2.5 89.775 -0.925 89.775 0.875V15.5H96.525V0.875zM126 48.125C126 46.325 124.425 44.75 122.625 44.75H122.4C120.6 44.75 119.025 46.325 119.025 48.125V70.625C119.025 72.425 120.6 74 122.4 74S125.775 72.425 125.775 70.625V48.125z" />
    <glyph glyph-name="amex"
      unicode="&#xEA0B;"
      horiz-adv-x="144" d="M27.9 47.45H39.375L40.95 41.15H50.175V65.675H50.85L58.05 42.5H63L69.975 65.675H70.65V41.15H75.375V70.85H67.05L60.3 47.675L53.55 70.85H45V42.95L38.025 70.85H28.35L20.925 41.375H25.65L27.9 47.45zM32.625 67.025H34.875L38.475 51.725H29.025L32.625 67.025zM104.4 41.375H104.85L111.375 52.625L117.675 41.375H123.075L114.3 56L123.075 71.3H117.675L111.15 59.6L104.85 71.3H79.875V41.825H99.225C99.225 41.375 104.4 41.375 104.4 41.375zM84.825 54.2H96.075V58.25H84.825V66.575H101.7L108 55.325L101.7 45.425H84.6V54.2zM138.15 88.175H5.85C2.7 88.175 0.225 85.7 0.225 82.55V29.225C0.225 26.075 2.7 23.6 5.85 23.6H138.375C141.525 23.6 144 26.075 144 29.225V82.55C143.775 85.7 141.3 88.175 138.15 88.175zM132.525 35.075H11.475V76.925H132.75V35.075z" />
    <glyph glyph-name="angular"
      unicode="&#xEA0C;"
      horiz-adv-x="144" d="M59.85 52.175H84.375L72 81.65L59.85 52.175zM72 128L5.175 104.15L15.525 15.5L72 -16L128.475 15.5L138.6 104.15L72 128zM113.85 18.2H98.325L90 39.125H54.225L45.9 18.2H30.15L72 112.025L113.85 18.2z" />
    <glyph glyph-name="atlassian"
      unicode="&#xEA0D;"
      horiz-adv-x="144" d="M42.75 61.4C40.5 63.65 37.125 63.65 35.775 60.725L0.45 -9.925C-0.9 -12.625 1.125 -16 4.275 -16H53.55C55.125 -16 56.7 -15.1 57.375 -13.75C67.95 8.3 61.425 41.6 42.75 61.4zM68.625 125.75C34.425 71.3 66.375 27.65 87.075 -13.75C87.75 -15.1 89.325 -16 90.9 -16H139.95C143.1 -16 145.125 -12.625 143.775 -9.925C143.775 -9.925 77.85 122.375 76.275 125.75C74.475 128.675 70.65 128.675 68.625 125.75z" />
    <glyph glyph-name="apple-pay"
      unicode="&#xEA0E;"
      horiz-adv-x="144" d="M26.325 78.05C24.75 76.025 22.05 74.45 19.35 74.675C19.125 77.375 20.25 80.3 21.825 82.1C23.4 84.125 26.55 85.7 28.8 85.7C29.025 82.775 27.9 80.075 26.325 78.05M28.8 74C24.975 74.225 21.6 71.75 19.8 71.75C17.775 71.75 14.85 74 11.925 74C7.875 74 4.275 71.75 2.025 68.15C-2.25 60.95 0.9 50.15 4.95 44.3C6.975 41.375 9.225 38.225 12.375 38.225C15.3 38.225 16.425 40.25 20.025 40.25C23.625 40.25 24.75 38.225 27.9 38.45C31.05 38.45 33.3 41.375 35.1 44.3C37.35 47.675 38.25 50.825 38.25 51.05C38.25 51.05 31.95 53.525 31.95 60.725C31.95 66.8 36.9 69.5 37.125 69.725C34.65 73.55 30.375 74 28.8 74M51.3 82.325V38.45H58.05V53.525H67.5C76.05 53.525 82.125 59.375 82.125 67.925S76.275 82.325 67.725 82.325H51.3zM58.275 76.475H66.15C72 76.475 75.375 73.325 75.375 67.7S72 58.925 66.15 58.925H58.275V76.475zM94.725 38C99 38 103.05 40.25 104.85 43.625H105.075V38.45H111.375V60.275C111.375 66.575 106.425 70.625 98.55 70.625C91.35 70.625 85.95 66.575 85.725 60.725H91.8C92.25 63.425 94.725 65.225 98.325 65.225C102.375 65.225 104.85 63.2 104.85 59.825V57.35L96.3 56.9C88.425 56.45 84.15 53.3 84.15 47.675C83.925 41.825 88.425 38 94.725 38zM96.525 43.175C92.925 43.175 90.675 44.975 90.675 47.675S92.925 51.95 97.2 52.175L104.85 52.625V50.15C104.625 46.1 101.025 43.175 96.525 43.175zM119.475 26.525C126 26.525 129.15 29 131.85 36.65L144 70.175H137.025L128.925 44.3H128.7L120.6 70.175H113.4L124.875 38.225L124.2 36.2C123.075 32.825 121.5 31.7 118.575 31.7H116.55V26.525H119.475z" />
    <glyph glyph-name="apple"
      unicode="&#xEA0F;"
      horiz-adv-x="144" d="M49.5 -16C40.275 -16 30.6 -9.25 21.15 4.025C11.7 17.75 6.975 31.025 6.975 43.625C6.975 56 10.8 65.9 18 73.55C24.975 80.975 33.975 84.575 44.55 84.575C48.825 84.575 54.225 83.9 60.975 82.325C70.2 80.075 72.9 80.075 74.025 80.075C76.95 80.075 81.225 80.975 87.3 82.775C93.6 84.575 98.775 85.475 103.5 85.475C110.925 85.475 117.675 83.9 123.3 80.525C125.325 79.4 127.125 78.05 129.6 76.025L135 71.525L129.375 67.25C126.675 65 124.2 62.975 122.625 60.95C119.025 56.45 117 51.725 117 46.55C117 40.925 119.025 35.75 123.075 30.575C126 26.975 129.6 24.5 133.65 22.7L138.825 20.45L136.575 15.275C134.1 9.875 130.725 4.475 126.45 -0.7C118.35 -10.825 110.25 -16 102.375 -16C99.45 -16 95.175 -15.1 89.55 -13.525C84.15 -11.95 79.425 -11.05 75.375 -11.05C71.325 -11.05 67.05 -11.95 62.1 -13.525C56.925 -15.1 52.875 -16 49.5 -16zM44.55 73.325C37.125 73.325 31.275 70.85 26.1 65.675C20.925 60.275 18.225 52.85 18.225 43.625C18.225 33.5 22.275 22.25 30.375 10.55C37.125 0.875 44.1 -4.75 49.5 -4.75C51.525 -4.75 54.45 -4.075 58.05 -2.725C64.35 -0.7 69.75 0.425 75.15 0.425C80.325 0.425 86.4 -0.475 92.7 -2.5C99.225 -4.3 101.925 -4.525 102.375 -4.525C106.65 -4.525 112.05 -0.7 117.675 6.5C120.15 9.425 122.175 12.35 123.75 15.275C120.375 17.525 117.225 20.225 114.3 23.6C108.675 30.575 105.75 38.45 105.75 46.55C105.75 54.425 108.45 61.625 113.85 68.15C114.75 69.05 115.65 70.175 116.775 71.075C112.95 73.1 108.675 74 103.5 74C99.9 74 95.625 73.325 90.45 71.75C83.025 69.725 78.075 68.6 74.025 68.6C71.55 68.6 67.725 68.825 58.5 71.075C52.65 72.875 47.925 73.325 44.55 73.325zM74.475 89.75C71.325 89.75 68.175 91.1 65.925 93.35C63.675 95.825 63 98.975 63.675 101.9C65.925 111.125 68.85 116.975 72.9 120.125L73.125 120.35C79.2 125.075 88.425 126.875 95.175 127.775C98.775 128.225 102.375 127.1 104.85 124.4C107.1 122.15 108 119.225 107.55 116.3C106.65 110.225 103.95 102.125 97.65 96.95L97.425 96.725C92.7 93.35 85.725 91.1 76.725 89.75H74.475zM74.7 99.2zM79.875 111.575C78.525 110.45 76.725 107.3 75.15 101.225C81.9 102.35 87.3 104.15 90.45 106.175C93.6 108.875 95.175 113.375 95.85 116.75C88.65 115.625 83.025 113.825 79.875 111.575z" />
    <glyph glyph-name="app-store"
      unicode="&#xEA10;"
      horiz-adv-x="144" d="M72 95.15L74.7 99.65C76.275 102.575 79.875 103.475 82.8 101.9C85.725 100.325 86.625 96.725 85.05 93.8L59.4 49.925H77.85C83.7 49.925 87.075 42.95 84.6 38H30.825C27.45 38 24.975 40.7 24.975 43.85C24.975 47.225 27.675 49.7 30.825 49.7H45.9L65.25 83.45L59.175 94.025C57.6 96.95 58.5 100.55 61.425 102.125C64.35 103.7 67.95 102.8 69.525 99.875L72 95.15zM49.05 31.925L43.425 22.025C41.85 19.1 38.25 18.2 35.325 19.775C32.4 21.35 31.5 24.95 33.075 27.875L37.35 35.3C42.075 36.875 46.125 35.75 49.05 31.925zM98.1 49.925H113.625C117 49.925 119.475 47.225 119.475 44.075C119.475 40.7 116.775 38.225 113.625 38.225H105.075L110.925 28.1C112.5 25.175 111.6 21.575 108.675 20C105.75 18.425 102.15 19.325 100.575 22.25C90.9 39.125 83.475 51.725 78.75 60.275C73.8 68.825 77.4 77.375 80.775 80.3C84.6 73.325 90.45 63.2 98.1 49.925zM72 128C32.175 128 0 95.825 0 56S32.175 -16 72 -16S144 16.175 144 56S111.825 128 72 128zM134.775 56C134.775 21.575 106.875 -6.775 72 -6.775C37.575 -6.775 9.225 21.125 9.225 56C9.225 90.425 37.125 118.775 72 118.775C106.425 118.775 134.775 90.875 134.775 56z" />
    <glyph glyph-name="aws"
      unicode="&#xEA11;"
      horiz-adv-x="144" d="M40.5 67.925C40.5 62.75 42.975 60.5 42.975 59.15C42.975 58.475 42.525 58.025 42.075 57.8L39.15 55.775C38.7 55.55 38.25 55.325 37.8 55.325C37.8 55.325 36 54.875 33.3 61.175C29.925 56.9 24.75 54.425 19.125 54.65C15.525 54.425 5.625 56.675 6.075 67.25C5.625 75.8 13.725 81.2 22.05 80.75C23.625 80.75 27 80.75 32.625 79.4V83C33.3 88.85 29.25 93.575 22.5 92.9C22.05 92.9 18.225 92.9 12.15 90.65C10.575 89.525 10.575 89.75 9.9 89.75C8.325 89.75 9 94.475 9.225 95.15C10.35 96.5 17.325 99.2 24.075 99.2C28.575 99.65 33.075 98.3 36.675 95.375C39.6 92.225 40.95 87.95 40.725 83.675L40.5 67.925zM21.15 60.725C28.35 60.725 31.5 65.225 32.175 67.475C32.625 69.725 32.625 71.075 32.625 73.55C30.375 74 27.225 74.675 23.625 74.675C20.25 74.9 13.95 73.325 14.175 67.475C14.175 63.65 16.875 60.5 21.15 60.725zM59.625 55.55C57.825 55.325 56.925 56.675 56.7 57.8L45.45 94.925C45.225 95.6 45 96.275 45 96.95C45 97.625 45.225 98.075 45.9 98.075H50.85C52.875 98.3 53.55 96.725 53.775 95.825L61.875 64.1L69.3 95.825C69.525 96.5 69.975 98.3 72.225 98.075H76.05C76.5 98.075 78.525 98.075 78.975 95.825L86.4 63.65L94.725 95.825C94.725 96.275 95.4 98.3 97.65 98.075H102.15C102.375 98.075 103.5 98.3 103.275 96.05C103.275 95.6 103.95 98.525 91.35 57.8C91.125 56.45 90.225 55.325 88.425 55.55H84.15C81.675 55.325 81.225 57.8 81.225 58.025L73.8 88.85L66.375 58.025C66.375 57.8 65.925 55.325 63.45 55.55H59.625zM121.05 54.2C119.7 54.2 113.4 54.2 108.225 56.9C107.1 57.35 106.425 58.475 106.425 59.6V62.075C106.425 63.875 107.775 63.65 108.45 63.425C110.7 62.525 112.05 61.85 114.975 61.175C123.3 59.375 126.9 61.625 127.8 62.075C130.725 63.875 130.95 67.925 128.925 69.95C126.675 71.975 125.55 71.975 117 74.675C115.875 74.9 107.1 77.825 107.1 86.375C106.875 92.675 112.725 98.975 122.85 98.975C125.775 98.975 133.2 98.075 135.45 95.375C135.675 94.925 135.9 94.25 135.9 93.8V91.55C135.9 90.65 135.45 89.975 134.775 89.975C132.975 90.2 130.05 92.45 123.75 92.45C122.175 92.45 114.75 92.225 115.2 86.825C115.2 82.55 121.275 80.975 121.95 80.75C130.05 78.275 132.975 77.825 136.125 74C139.95 69.05 137.925 63.2 137.025 61.625C132.525 53.525 121.275 54.2 121.05 54.2zM130.275 30.575C114.525 18.875 91.575 12.8 72.225 12.8C45.675 12.575 20.25 22.25 0.675 40.025C-0.9 41.375 0.45 43.175 2.25 42.05C23.85 29.675 48.6 23.15 73.575 23.15C92.25 23.15 110.7 26.975 128.025 34.4C130.5 35.3 132.75 32.6 130.275 30.575zM136.8 38C134.775 40.7 123.525 39.125 118.35 38.675C116.775 38.45 116.55 39.8 117.9 40.7C126.9 47 141.75 45.2 143.325 43.175C145.125 41.15 142.875 26.3 134.325 19.1C132.975 17.975 131.85 18.65 132.3 20C134.55 24.95 138.825 35.525 136.8 38z" />
    <glyph glyph-name="behance-original"
      unicode="&#xEA12;"
      horiz-adv-x="144" d="M58.05 60.725C65.925 64.55 70.2 70.175 70.2 79.175C70.2 96.725 57.15 101.225 41.85 101.225H0V12.575H42.975C59.175 12.575 74.25 20.225 74.25 38.225C74.25 49.475 68.85 57.575 58.05 60.725zM19.575 85.925H37.8C44.775 85.925 51.075 83.9 51.075 75.8C51.075 68.375 46.125 65.225 39.15 65.225H19.575V85.925zM40.275 27.65H19.575V51.95H40.725C49.275 51.95 54.675 48.35 54.675 39.35C54.675 30.35 48.15 27.65 40.275 27.65zM129.825 87.725H93.825V96.5H129.825V87.725zM144 43.625C144 62.75 132.975 78.5 112.725 78.5C93.15 78.5 79.875 63.875 79.875 44.525C79.875 24.5 92.475 10.775 112.725 10.775C128.025 10.775 137.925 17.75 142.65 32.375H127.125C125.55 26.975 118.575 24.05 113.175 24.05C102.825 24.05 97.425 30.125 97.425 40.475H143.775C144 41.375 144 42.5 144 43.625zM97.65 51.5C98.325 59.825 103.725 65.225 112.275 65.225C121.05 65.225 125.55 60.05 126.225 51.5H97.65z" />
    <glyph glyph-name="behance"
      unicode="&#xEA13;"
      horiz-adv-x="144" d="M55.8 56C58.95 58.475 61.425 61.625 63.225 65.225C67.275 74 66.825 83.675 61.65 91.55C56.7 99.2 48.375 103.925 39.15 103.925H13.725C6.3 103.925 0.225 97.85 0.225 90.425V22.025C0.225 15.5 5.4 8.525 16.425 8.525H39.6C49.5 8.525 60.075 15.275 63.9 24.05C67.725 33.05 66.825 42.5 61.875 50.15C60.075 52.175 58.05 54.2 55.8 56zM11.475 90.2C11.475 91.55 12.6 92.45 13.725 92.45H39.15C44.325 92.45 49.275 89.75 52.2 85.25C55.125 80.75 55.35 75.125 52.875 69.725C50.625 64.775 45.225 61.4 39.15 61.4H11.475V90.2zM53.325 28.1C51.525 23.6 44.775 19.55 39.375 19.55H16.425C15.3 19.55 11.475 19.775 11.475 21.8V50.375H39.375C44.55 50.375 49.5 47.9 52.425 43.4C55.125 39.125 55.575 33.5 53.325 28.1zM90 86.6H138.15C141.3 86.6 143.775 89.075 143.775 92.225S141.3 97.85 138.15 97.85H90C86.85 97.85 84.375 95.375 84.375 92.225S86.85 86.6 90 86.6zM141.75 41.375C141.75 41.6 141.975 41.6 141.975 41.825S141.975 42.275 142.2 42.275C142.2 42.5 142.2 42.725 142.425 42.725V43.175V43.625V43.85V44.075C141.075 60.95 127.125 74 110.475 74C93.825 74 79.875 60.95 78.75 44.525V42.275C78.75 24.725 92.925 10.55 110.475 10.55C118.125 10.55 125.775 13.25 131.4 18.425C133.65 20.45 133.875 24.05 131.85 26.3C129.825 28.55 126.225 28.775 123.975 26.75C120.375 23.6 115.425 21.8 110.475 21.8C100.575 21.8 92.25 29 90.45 38.45H138.375C138.6 38.45 138.825 38.45 138.825 38.675C139.05 38.675 139.275 38.9 139.275 38.9C139.5 38.9 139.5 39.125 139.725 39.125S139.95 39.35 140.175 39.35S140.4 39.575 140.625 39.8L141.0750000000001 40.25C141.3000000000001 40.475 141.3000000000001 40.475 141.3000000000001 40.7C141.525 40.925 141.525 40.925 141.525 41.15C141.525 41.15 141.525 41.375 141.7500000000001 41.375zM110.475 62.75C119.25 62.75 126.675 57.35 129.6 49.7H91.35C94.5 57.35 101.925 62.75 110.475 62.75z" />
    <glyph glyph-name="bitbucket"
      unicode="&#xEA14;"
      horiz-adv-x="144" d="M44.55 98.75C44.55 89.075 58.275 84.8 72 84.8S99.45 89.075 99.45 98.75S85.725 112.7 72 112.7S44.55 108.425 44.55 98.75zM72 100.55C78.075 100.55 82.35 99.65 84.825 98.75C82.125 97.85 77.85 96.95 72 96.95C65.925 96.95 61.65 97.85 59.175 98.75C61.65 99.65 65.925 100.55 72 100.55zM70.875 83.45A15.075 15.075 0 1 1 70.875 53.3A15.075 15.075 0 0 1 70.875 83.45zM70.875 65.45C69.3 65.45 67.95 66.8 67.95 68.375S69.3 71.3 70.875 71.3S73.8 69.95 73.8 68.375S72.45 65.45 70.875 65.45zM120.375 120.125C108.9 125.3 83.025 128 69.075 128C55.35 128 35.325 125.3 23.625 120.125C20.7 118.775 19.125 115.85 19.35 112.7L25.2 56.9C25.425 54.425 27 52.4 29.025 51.275C34.425 48.575 53.55 39.575 68.85 39.575C84.6 39.575 106.65 43.85 116.1 51.95C117.45 53.075 118.35 54.875 118.575 56.675L124.425 112.7C125.1 115.85 123.3 118.775 120.375 120.125zM107.1 60.05C99.9 55.325 83.25 51.5 69.075 51.5C57.825 51.5 42.75 58.025 36.9 60.725L31.5 110.45C40.95 113.825 56.25 116.075 68.85 116.075C81.9 116.075 101.925 113.825 112.275 110.45L107.1 60.05zM113.4 40.025C111.375 41.6 108.675 41.825 106.2 40.7C100.575 38.225 81.675 32.375 69.075 32.6C55.575 32.825 42.975 38.45 37.575 40.7C35.325 41.825 32.4 41.375 30.375 40.025C28.35 38.45 27.225 35.975 27.45 33.275L31.275 -2.725C31.5 -5.425 33.075 -7.675 35.55 -9.025C44.775 -13.525 56.475 -16.225 68.85 -16.225C81 -16.225 98.775 -13.75 108 -9.025C110.475 -7.9 112.05 -5.425 112.275 -2.725L116.1 33.275C116.55 35.975 115.425 38.45 113.4 40.025zM100.8 0.875C93.6 -2.05 80.1 -4.075 69.075 -4.075C59.4 -4.075 50.4 -2.275 43.2 0.875L40.5 26.75C47.7 24.05 57.825 20.9 68.85 20.675C80.325 20.45 94.5 24.05 103.5 26.975L100.8 0.875z" />
    <glyph glyph-name="chrome"
      unicode="&#xEA15;"
      horiz-adv-x="144" d="M103.275 120.575C85.95 128.9 66.6 130.025 48.375 123.725C30.375 117.65 15.75 104.6 7.425 87.275C-9.9 51.725 4.95 8.525 40.725 -8.575C50.625 -13.3 61.2 -15.775 72 -15.775C79.875 -15.775 87.75 -14.425 95.625 -11.725C113.625 -5.425 128.25 7.4 136.575 24.725C153.9 60.275 138.825 103.25 103.275 120.575zM98.325 110.45C121.5 99.2 134.325 75.125 132.075 50.825L93.15 77.375C91.125 79.4 88.65 81.2 85.95 82.55C79.425 85.7 72.225 86.15 65.25 83.675C63.9 83.225 62.775 82.55 61.425 82.1L64.8 116.075C76.5 117.425 87.975 115.625 98.325 110.45zM67.275 44.075C63.45 45.875 60.75 49.025 59.175 53.075C57.825 57.125 58.05 61.4 59.85 65S64.8 71.525 68.85 73.1C70.65 73.775 72.225 74 74.025 74C76.275 74 78.75 73.55 80.775 72.425C84.6 70.625 87.3 67.475 88.875 63.425C90.225 59.375 90 55.1 88.2 51.5S83.25 44.975 79.2 43.4C75.375 42.05 71.1 42.275 67.275 44.075zM17.55 82.55C24.75 96.95 36.9 107.975 52.2 113.15C52.65 113.375 53.1 113.375 53.55 113.6L48.825 67.25C46.8 61.4 46.8 55.325 48.825 49.475C50.625 44.3 53.775 40.025 58.05 36.65L21.15 23.375C10.125 40.475 8.1 62.75 17.55 82.55zM91.8 -1.15C76.5 -6.55 60.075 -5.425 45.675 1.55C39.15 4.7 33.3 8.975 28.575 14.15L76.5 31.25C78.75 31.475 81 31.925 83.025 32.6C89.775 34.85 95.4 39.8 98.55 46.325C100.35 50.15 101.25 54.2 101.25 58.25L130.05 38.675C129.15 35.525 128.025 32.6 126.45 29.45C119.25 15.05 107.1 4.025 91.8 -1.15z" />
    <glyph glyph-name="bitcoin"
      unicode="&#xEA16;"
      horiz-adv-x="144" d="M106.425 56C115.2 62.075 121.05 72.2 121.05 83.675C121.05 101.675 106.65 116.3 88.875 116.75V122.375C88.875 125.525 86.4 128 83.25 128S77.625 125.525 77.625 122.375V116.75H68.625V122.375C68.625 125.525 66.15 128 63 128S57.375 125.525 57.375 122.375V116.75H28.125C24.975 116.75 22.5 114.275 22.5 111.125S24.975 105.5 28.125 105.5H33.75V6.5H28.125C24.975 6.5 22.5 4.025 22.5 0.875S24.975 -4.75 28.125 -4.75H57.375V-10.375C57.375 -13.525 59.85 -16 63 -16S68.625 -13.525 68.625 -10.375V-4.75H77.625V-10.375C77.625 -13.525 80.1 -16 83.25 -16S88.875 -13.525 88.875 -10.375V-4.75C106.65 -4.3 121.05 10.325 121.05 28.325C121.275 39.8 115.425 49.925 106.425 56zM45.225 105.5H88.2C100.35 105.5 110.25 95.6 110.25 83.45S100.35 61.4 88.2 61.4H45.225V105.5zM87.975 6.5H45.225V50.375H88.2C100.35 50.375 110.25 40.475 110.25 28.325S100.125 6.5 87.975 6.5z" />
    <glyph glyph-name="codepen"
      unicode="&#xEA17;"
      horiz-adv-x="144" d="M141.3 83L75.375 126.875C73.125 128.225 70.65 128.225 68.4 126.875L2.7 83C1.125 81.875 0 79.85 0 78.05V34.175C0 32.15 1.125 30.125 2.7 29L68.4 -14.875C70.65 -16.225 73.125 -16.225 75.375 -14.875L141.3 29C142.875 30.125 144 32.15 144 34.175V78.05C144 79.85 142.875 81.875 141.3 83zM78.075 110.225L126.45 77.825L104.85 63.425L78.075 81.425V110.225zM65.7 110.225V81.425L38.925 63.425L17.325 77.825L65.7 110.225zM12.375 66.35L27.9 56L12.375 45.65V66.35zM65.7 1.775L17.325 34.175L38.925 48.575L65.7 30.575V1.775zM72 41.375L50.175 56L72 70.625L93.825 56L72 41.375zM78.075 1.775V30.575L104.85 48.575L126.45 34.175L78.075 1.775zM131.625 45.65L116.1 56L131.625 66.35V45.65z" />
    <glyph glyph-name="bootstrap"
      unicode="&#xEA18;"
      horiz-adv-x="144" d="M94.05 38C94.05 24.275 81.225 24.725 79.875 24.725H53.775V51.05H79.875C93.6 51.05 94.05 40.7 94.05 38zM77.85 61.625C78.075 61.625 90.225 61.4 90.225 73.325C90.225 78.275 89.1 84.8 77.85 84.8H53.775V61.625H77.85zM144 103.925V7.85C144 -5.2 133.2 -16 119.925 -16H24.075C10.8 -16 0 -5.2 0 8.075V103.925C0 117.2 10.8 128 24.075 128H120.15C133.2 128 144 117.2 144 103.925zM108.675 36.2C108.675 43.175 106.65 54.875 92.925 57.8V58.025C100.35 61.175 104.85 67.025 104.85 75.8C104.85 78.05 105.525 96.725 79.875 96.725H39.15V12.8C80.325 12.8 84.15 12.35 91.8 14.6C96.3 15.95 108.675 20.225 108.675 36.2z" />
    <glyph glyph-name="css3"
      unicode="&#xEA19;"
      horiz-adv-x="144" d="M141.75 125.075C140.4 126.65 138.15 127.55 136.125 127.55H7.875C5.625 127.55 3.6 126.65 2.25 125.075C0.675 123.5 0 121.475 0.225 119.225L11.7 3.575C11.925 0.65 14.175 -2.05 17.325 -2.95L68.175 -15.325C69.3 -15.55 70.425 -15.775 71.55 -15.775S74.025 -15.55 75.15 -15.325L126 -2.95C128.925 -2.275 131.175 0.425 131.4 3.35L143.55 119.225C144 121.475 143.325 123.5 141.75 125.075zM120.825 7.4L72.675 -4.3C72 -4.525 71.1 -4.525 70.65 -4.3L22.5 7.4L11.925 116.3H132.3L120.825 7.4zM24.75 97.625C24.75 94.475 27.225 92 30.375 92H108.225L105.075 74H41.625C38.475 74 36 71.525 36 68.375S38.475 62.75 41.625 62.75H103.05L97.875 34.175L74.25 25.85L50.625 34.4L47.475 49.25C46.8 52.4 43.875 54.2 40.95 53.525C37.8 52.85 36 49.925 36.675 46.775L40.275 28.775C40.725 26.75 42.075 25.175 43.875 24.5L72.45 14.375C73.125 14.15 73.8 14.15 74.25 14.15S75.6 14.15 76.05 14.375L104.625 24.5C106.425 25.175 108 26.75 108.225 28.775L119.25 90.65C119.925 93.8 119.025 96.725 117 99.2L116.775 99.425C114.75 101.675 111.825 102.8 108.675 102.8H29.925C27.225 103.25 24.75 100.775 24.75 97.625z" />
    <glyph glyph-name="blogger"
      unicode="&#xEA1A;"
      horiz-adv-x="144" d="M143.55 66.8C142.875 69.275 141.3 71.75 139.5 72.65C138.825 72.875 135.225 73.325 131.4 73.55C124.875 73.775 124.2 74 122.175 75.125C119.025 76.925 118.125 78.95 118.125 84.575C118.125 95.15 113.625 105.05 105.075 113.825C98.775 120.125 92.025 124.4 83.925 126.875C82.125 127.55 77.85 127.55 63.675 127.775C41.4 128 36.45 127.55 28.8 124.625C14.85 119.225 4.725 107.3 1.125 92.45C0.45 89.525 0.225 85.025 0 58.925C-0.225 26.3 0 21.575 2.25 15.05C3.825 9.65 5.625 6.5 9 1.775C15.75 -7 25.65 -13.525 35.55 -15.325C40.5 -16 99 -16.225 105.075 -15.55C115.425 -14.2 123.75 -9.925 131.4 -2.05C137.025 3.575 140.4 9.875 142.65 17.975C143.55 21.35 143.775 22.925 143.775 42.95C144 57.8 144 65 143.55 66.8zM40.05 87.05C42.525 89.525 43.2 89.75 58.95 89.75C73.125 89.75 73.575 89.75 75.6 88.625C78.525 87.05 79.875 85.025 79.875 81.65C79.875 78.5 78.75 76.475 75.825 74.675C74.475 73.775 73.575 73.775 59.625 73.55C51.075 73.55 44.325 73.775 43.2 74C38.025 75.575 36.225 83.225 40.05 87.05zM101.7 22.925L96.975 22.25L72 21.8C50.175 21.575 43.875 22.025 42.75 22.475C40.5 23.375 38.25 26.3 38.025 28.775C37.575 31.025 38.925 34.4 40.725 35.975C42.975 38 44.1 38 72 38.225C100.8 38.225 100.575 38.225 103.275 35.75C107.1 31.925 106.2 25.625 101.7 22.925z" />
    <glyph glyph-name="dev"
      unicode="&#xEA1B;"
      horiz-adv-x="144" d="M38.7 71.3C37.35 72.2 36.225 72.65 34.875 72.65H29.25V39.125H34.875C36.225 39.125 37.35 39.575 38.7 40.475C40.05 41.375 40.5 42.725 40.5 44.75V67.25C40.5 69.05 39.825 70.4 38.7 71.3zM129.825 128H14.175C6.3 128 0 121.7 0 113.825V-2.05C0 -9.7 6.3 -16 14.175 -16H130.05C137.925 -16 144.225 -9.7 144.225 -1.825V113.825C144 121.7 137.7 128 129.825 128zM49.5 44.75C49.5 38.675 45.675 29.45 33.975 29.45H19.125V82.775H34.425C45.9 82.775 49.725 73.55 49.725 67.475L49.5 44.75zM81.9 73.1H64.8V60.725H75.375V51.275H64.8V38.9H81.9V29.45H61.875C58.275 29.45 55.35 32.15 55.125 35.75V76.025C55.125 79.625 57.825 82.55 61.425 82.775H81.675L81.9 73.1zM115.2 36.2C110.925 26.3 103.275 28.325 99.9 36.2L87.525 82.775H98.1L107.55 46.325L117 82.775H127.575L115.2 36.2z" />
    <glyph glyph-name="diners-club"
      unicode="&#xEA1C;"
      horiz-adv-x="144" d="M54.225 55.1C61.425 55.1 62.55 60.05 62.55 62.075C62.55 65.675 59.625 69.05 54.45 69.05H48.375V68.6C49.275 68.6 50.175 68.6 50.175 66.8V57.125C50.175 55.775 49.5 55.775 48.375 55.55V55.1H54.225zM52.425 68.375H54C57.825 68.375 60.3 65.675 60.3 61.85C60.3 58.925 58.95 55.55 54.45 55.55C53.55 55.55 52.425 55.775 52.425 57.35V68.375zM67.725 55.1V55.55H67.275C66.6 55.55 66.375 55.55 66.375 56.225V63.875C66.375 64.1 66.375 64.1 66.15 64.1H65.7S64.575 63.65 63.45 63.425V63.2C64.125 62.75 64.575 62.75 64.575 61.85V56.45C64.575 55.775 64.125 55.775 63.675 55.775H63.225V55.325H65.475C66.15 55.1 67.05 55.1 67.725 55.1zM65.475 67.475C65.925 67.475 66.375 67.925 66.375 68.375S65.925 69.275 65.475 69.275S64.575 68.825 64.575 68.375S65.025 67.475 65.475 67.475zM78.3 55.55H77.85C77.175 55.55 76.95 55.55 76.95 56.225V61.4C76.95 62.975 76.275 64.325 74.7 64.325C73.35 64.325 72.45 63.65 71.1 62.75V64.1C71.1 64.325 71.1 64.325 70.875 64.325C69.975 63.875 69.075 63.65 68.175 63.425V62.975C69.075 62.525 69.3 62.3 69.3 61.625V56.225C69.3 55.55 68.85 55.55 68.4 55.55H67.95V55.1H72.45V55.55H72C71.325 55.55 71.1 55.55 71.1 56.225V62.3C71.775 62.75 72.9 63.2 73.35 63.2C74.475 63.2 75.15 62.525 75.15 61.4V56.225C75.15 55.55 74.7 55.55 74.25 55.55H73.8V55.1H78.075V55.55zM82.125 54.875C83.7 54.875 84.825 56 85.95 57.125L85.5 57.35C84.825 56.675 83.925 56 82.8 56C81.225 56 79.875 57.575 79.875 59.6V60.725H85.5L85.725 60.95V61.4C85.725 63.65 83.925 64.55 82.35 64.55C81 64.55 78.3 63.425 78.3 59.375C78.3 57.8 78.975 54.875 82.125 54.875zM82.35 63.65C83.475 63.65 84.15 62.75 84.15 61.85C84.15 61.625 84.15 61.4 83.7 61.4H80.1C80.1 62.75 81 63.65 82.35 63.65zM91.35 55.1V55.55H90.225C89.55 55.55 89.325 55.55 89.325 56.225V60.95C89.325 62.075 90.45 62.525 90.9 62.525C91.575 62.525 91.575 62.075 92.25 62.075S93.15 62.525 93.15 63.2S92.475 64.325 92.025 64.325C90.9 64.325 90 62.975 89.55 62.3V64.1C89.55 64.325 89.55 64.325 89.325 64.325S88.425 63.875 86.85 63.2V62.75C87.075 62.525 87.975 62.525 87.975 61.85V56.225C87.975 55.55 87.525 55.55 87.075 55.55H86.625V55.1H91.35zM96.525 55.325C94.95 55.325 94.275 56.45 94.05 57.8H93.6L93.825 55.55C94.5 55.1 95.4 54.875 96.3 54.875C98.775 54.875 99.675 56.225 99.675 57.575C99.675 60.725 94.95 60.05 94.95 62.3C94.95 63.2 95.625 63.65 96.525 63.65C97.875 63.65 98.55 62.975 98.775 61.625H99.225L99 63.65C98.325 64.1 97.425 64.325 96.75 64.325C94.5 64.325 93.6 62.975 93.6 61.85C93.6 58.7 98.1 59.375 98.1 56.9C98.1 56.225 97.65 55.325 96.525 55.325zM117.45 55.775L117.9 58.7L117.45 58.925C117 56.9 115.425 55.325 113.4 55.325C110.25 55.325 107.325 58.25 107.325 62.3C107.325 67.25 110.7 68.6 112.95 68.6S116.775 67.7 117.225 65.225H117.675L117.45 68.15C116.325 69.05 114.75 69.5 112.95 69.5C108.9 69.5 105.3 66.575 105.3 62.3C105.3 57.8 108.225 54.65 112.95 54.65C114.525 54.875 116.775 55.325 117.45 55.775zM123.075 55.1V55.55H122.625C121.95 55.55 121.725 55.55 121.725 56.225V70.175C121.725 70.4 121.725 70.4 121.5 70.4C121.5 70.4 121.275 70.4 121.05 70.175C120.6 69.95 119.7 69.5 119.025 69.275V69.05C119.7 68.825 120.15 68.825 120.15 67.475V56.225C120.15 55.55 119.7 55.55 119.25 55.55H118.8V55.1H123.075zM124.2 62.3V57.125C124.2 55.325 125.325 54.65 126.45 54.65C127.8 54.65 128.925 55.325 130.05 56.45V54.875C130.5 55.1 132.075 55.325 132.975 55.55V56H132.075C131.625 56 131.4 56 131.4 56.45V63.875C131.4 64.1 131.4 64.325 131.175 64.325S129.825 64.1 128.025 64.1V63.65C128.7 63.425 129.825 63.2 129.825 62.75V57.35C128.925 56.675 128.025 56.225 127.35 56.225C125.55 56.225 125.55 58.025 125.55 58.475V63.65C125.55 64.1 125.55 64.325 125.325 64.325S123.525 64.1 122.625 64.1V63.65C124.2 63.425 124.2 62.975 124.2 62.3zM134.1 67.475V58.7C134.1 57.575 134.1 56.225 133.875 55.1L134.325 54.875L135 55.325C135.45 55.1 136.35 54.65 137.7 54.65C140.625 54.65 142.425 57.35 142.425 59.825C142.425 62.075 141.075 64.1 138.6 64.1C137.475 64.1 136.35 63.425 135.675 62.75V70.175C135.675 70.4 135.675 70.4 135.45 70.4C135.45 70.4 135.225 70.4 135 70.175C134.55 69.95 133.65 69.5 132.975 69.275V69.05C133.65 68.825 134.1 68.825 134.1 67.475zM135.675 62.3C136.125 62.75 136.8 63.2 137.7 63.2C139.275 63.2 140.85 61.4 140.85 59.15C140.85 57.35 139.95 55.325 137.7 55.325C136.35 55.325 135.675 56.675 135.675 57.35V62.3zM50.175 50.6H48.6V50.15H48.825C49.275 50.15 49.5 50.15 49.5 49.475V43.625C49.5 43.175 49.05 42.95 48.825 42.95H48.6V42.725H51.975V43.175H51.75C51.3 43.175 51.075 43.175 51.075 43.85V49.7C51.075 50.15 51.525 50.375 51.75 50.375H51.975V50.825C51.525 50.825 50.85 50.6 50.175 50.6zM59.85 50.6H58.275V50.15H58.5C58.725 50.15 59.4 50.15 59.4 49.25V45.2L54.675 50.6H52.2V50.15H52.425C52.875 50.15 53.325 49.7 53.325 49.25V44.75C53.325 43.85 53.1 43.4 52.425 43.4H52.2V42.95H55.125V43.4H54.9C54 43.4 54 43.625 54 44.75V49.25L59.625 42.95H60.075V49.025C60.075 50.375 60.525 50.375 60.975 50.375H61.2V50.825C60.75 50.825 60.3 50.6 59.85 50.6zM68.85 51.05C68.85 50.825 68.625 50.6 68.4 50.6H62.775C62.55 50.6 62.325 50.6 62.325 50.825H62.1V49.925C62.1 49.7 62.1 49.25 61.875 49.025H62.325C62.55 49.925 62.55 49.925 63.225 49.925H65.025V44.075C65.025 43.175 64.8 43.175 64.125 43.175H63.9V42.725H67.5V43.175H67.275C66.825 43.175 66.375 43.175 66.375 44.075V49.925H68.175C68.85 49.925 68.85 49.25 68.85 49.025L69.3 49.25V50.15C69.3 50.375 69.3 50.825 69.525 51.05H68.85zM75.375 44.975C74.925 43.625 74.475 43.625 73.125 43.625C72.45 43.625 71.775 43.625 71.775 44.3V46.775H73.125C73.8 46.775 73.8 46.325 74.025 45.65H74.475V47V48.35H74.025C74.025 47.675 73.8 47.45 73.125 47.45H72V50.15H73.575C74.7 50.15 74.7 49.7 74.925 48.8H75.375V49.925V50.6H69.975V50.15H69.75C70.2 50.15 70.425 50.15 70.425 49.475V43.625C70.425 43.175 69.975 42.95 69.75 42.95H69.525V42.725H75.375C75.375 43.4 75.6 43.85 75.825 44.525L75.375 44.975zM82.8 44.075L81 46.775C81.9 47.225 82.575 47.675 82.575 48.8C82.575 50.375 81.225 50.825 79.875 50.825H76.275V50.375H76.5C76.95 50.375 77.175 50.375 77.175 49.475V43.85C77.175 43.4 76.95 43.4 76.5 43.4H76.275V42.95H79.65V43.4H79.425C78.975 43.4 78.525 43.4 78.525 44.3V46.55H79.2C79.875 45.2 80.55 44.075 81.45 42.95H83.7V43.4C83.25 43.4 83.025 43.625 82.8 44.075zM79.2 47H78.75V50.15H79.425C80.325 50.15 81 49.475 81 48.575C80.775 47.45 80.325 47 79.2 47zM92.925 50.375V50.825H90V50.375H90.225C90.45 50.375 91.125 50.375 91.125 49.475V45.425L86.4 50.825H84.15V50.375H84.375C84.825 50.375 85.275 49.925 85.275 49.475V44.75C85.275 43.85 85.05 43.4 84.375 43.4H84.15V42.95H87.075V43.4H86.85C85.95 43.4 85.95 43.625 85.95 44.75V49.25L91.575 42.95H92.025V49.025C91.8 50.15 92.25 50.375 92.925 50.375zM99.9 43.85C99.675 44.075 99.675 44.525 99.45 44.975L97.425 50.825V51.05H97.2C96.975 50.825 96.525 50.6 96.3 50.6C96.3 50.15 96.075 49.7 95.85 49.25L94.05 44.3C93.825 43.85 93.6 43.625 93.15 43.625V43.175H95.625V43.625H95.4C94.95 43.625 94.725 43.625 94.725 43.85S94.95 44.3 94.95 44.75L95.4 45.875H97.875L98.325 44.525C98.55 44.075 98.55 43.85 98.55 43.85C98.55 43.625 98.1 43.625 97.875 43.625H97.65V43.175H100.8V43.625H100.575C100.125 43.4 99.9 43.625 99.9 43.85zM95.4 46.325L96.3 49.25L97.2 46.325H95.4zM107.1 51.05C107.1 50.825 106.875 50.6 106.65 50.6H101.025C100.8 50.6 100.575 50.6 100.575 50.825H100.35V49.925C100.35 49.7 100.35 49.25 100.125 49.025H100.575C100.8 49.925 100.8 49.925 101.475 49.925H103.275V44.075C103.275 43.175 103.05 43.175 102.375 43.175H102.15V42.725H105.75V43.175H105.525C105.075 43.175 104.625 43.175 104.625 44.075V49.925H106.425C107.1 49.925 107.1 49.25 107.1 49.025L107.55 49.25V50.15C107.55 50.375 107.55 50.825 107.775 51.05H107.1zM109.35 50.6H107.775V50.15H108C108.45 50.15 108.675 50.15 108.675 49.475V43.625C108.675 43.175 108.225 42.95 108 42.95H107.775V42.725H111.15V43.175H110.925C110.475 43.175 110.25 43.175 110.25 43.85V49.7C110.25 50.15 110.7 50.375 110.925 50.375H111.15V50.825C110.475 50.825 109.8 50.6 109.35 50.6zM115.425 50.825C113.175 50.825 111.375 49.025 111.375 46.775C111.375 44.3 113.175 42.725 115.425 42.725S119.7 44.525 119.7 47C119.7 49.475 117.9 50.825 115.425 50.825zM115.65 43.4C113.85 43.4 112.95 45.2 112.95 47.225C112.95 48.575 113.4 50.375 115.425 50.375C117.225 50.375 118.125 48.575 118.125 46.775C118.125 45.2 117.675 43.4 115.65 43.4zM128.925 50.375V50.825H126V50.375H126.225C126.45 50.375 127.125 50.375 127.125 49.475V45.425L122.4 50.825H119.925V50.375H120.15C120.6 50.375 121.05 49.925 121.05 49.475V44.75C121.05 43.85 120.825 43.4 120.15 43.4H119.925V42.95H122.85V43.4H122.625C121.725 43.4 121.725 43.625 121.725 44.525V49.025L127.35 42.725H127.8V48.8C127.8 50.15 128.25 50.375 128.925 50.375zM135.675 43.85C135.45 44.075 135.45 44.525 135.225 44.975L133.2 50.825V51.05H132.975C132.75 50.825 132.3 50.6 132.075 50.6C132.075 50.15 131.85 49.7 131.625 49.25L129.825 44.3C129.6 43.85 129.375 43.625 128.925 43.625V43.175H131.4V43.625H131.175C130.725 43.625 130.5 43.625 130.5 44.075C130.5 44.3 130.725 44.525 130.725 44.975L131.175 46.1H133.65L134.1 44.75C134.325 44.3 134.325 44.075 134.325 44.075C134.325 43.85 133.875 43.85 133.65 43.85H133.425V43.4H136.575V43.85C135.9 43.4 135.675 43.625 135.675 43.85zM131.175 46.325L132.075 49.25L132.975 46.325H131.175zM142.65 44.975C142.65 44.75 142.425 44.3 142.2 44.075C141.975 43.85 141.525 43.625 141.075 43.4H139.5C139.05 43.4 138.825 43.625 138.825 44.075V49.7C138.825 50.15 139.05 50.15 139.5 50.15H139.725V50.6H136.35V50.15H136.575C137.025 50.15 137.25 50.15 137.25 49.475V43.85C137.25 43.175 136.8 43.175 136.575 43.175H136.35V42.725H142.2C142.425 43.4 142.425 44.075 142.65 44.525V44.975zM142.875 51.05C142.2 51.05 141.75 50.6 141.75 49.925S142.2 48.8 142.875 48.8S144 49.25 144 49.925S143.55 51.05 142.875 51.05zM142.875 48.8C142.425 48.8 141.975 49.25 141.975 49.7S142.425 50.6 142.875 50.6S143.775 50.15 143.775 49.7S143.325 48.8 142.875 48.8zM142.875 49.7C143.1 49.7 143.1 49.925 143.1 50.15S142.875 50.375 142.65 50.375H141.975C142.2 50.375 142.2 50.375 142.2 50.15V49.25H141.975H142.425H142.2V49.7H142.875C142.875 49.25 142.875 49.025 143.1 49.025H143.325L143.1 49.25L142.875 49.7zM142.875 49.925L142.65 50.375H142.875C143.1 50.375 143.1 50.375 143.1 50.15S142.875 49.925 142.875 49.925zM23.4 66.35V45.65C27.675 47.225 30.6 51.275 30.6 56C30.6 60.725 27.45 64.775 23.4 66.35zM8.325 56C8.325 51.275 11.25 47.225 15.525 45.65V66.35C11.25 64.775 8.325 60.725 8.325 56zM24.3 75.125H19.35C8.775 75.125 0 67.25 0 55.775C0 45.2 8.775 36.65 19.35 36.875H24.3C34.875 36.875 44.325 45.425 44.325 55.775C44.325 67.25 34.875 75.125 24.3 75.125zM19.35 38.45C9.675 38.45 1.8 46.325 1.8 56S9.675 73.55 19.35 73.55S36.9 65.675 36.9 56S29.025 38.45 19.35 38.45z" />
    <glyph glyph-name="discord"
      unicode="&#xEA1D;"
      horiz-adv-x="144" d="M85.275 67.7C81.225 67.7 77.85 64.1 77.85 59.6S81.225 51.5 85.275 51.5C89.325 51.5 92.7 55.1 92.7 59.6S89.325 67.7 85.275 67.7zM58.95 67.7C54.9 67.7 51.525 64.1 51.525 59.6S54.9 51.5 58.95 51.5C63 51.5 66.375 55.1 66.375 59.6S63 67.7 58.95 67.7zM120.15 128H23.85C15.525 128 9 121.475 9 113.15V15.725C9 7.625 15.525 0.875 23.85 0.875H105.525L101.7 14.15L110.925 5.6L119.7 -2.5L135 -16V113.15C135 121.475 128.475 128 120.15 128zM92.475 33.95S89.775 37.1 87.75 39.8C97.2 42.5 100.8 48.35 100.8 48.35C97.875 46.325 94.95 44.975 92.475 44.075C88.875 42.5 85.5 41.6 82.125 40.925C75.15 39.575 68.85 40.025 63.45 40.925C59.4 41.825 55.8 42.95 52.875 44.075C51.3 44.75 49.5 45.425 47.7 46.55C47.475 46.775 47.25 46.775 47.025 47C46.8 47 46.8 47.225 46.8 47.225C45.45 47.9 44.775 48.35 44.775 48.35S48.15 42.5 57.375 39.8C55.125 37.1 52.65 33.725 52.65 33.725C36.675 34.175 30.6 44.75 30.6 44.75C30.6 67.925 40.95 86.825 40.95 86.825C51.3 94.7 61.2 94.475 61.2 94.475L61.875 93.575C48.825 89.75 42.75 84.125 42.75 84.125S44.325 85.025 47.025 86.15C54.675 89.525 60.75 90.425 63.45 90.65C63.9 90.65 64.35 90.875 64.575 90.875C69.075 91.55 74.025 91.55 79.2 91.1C85.95 90.2 93.375 88.4 100.8 84.125C100.8 84.125 95.175 89.525 82.8 93.35L83.7 94.475S93.6 94.7 103.95 86.825C103.95 86.825 114.3 67.925 114.3 44.75C114.525 44.975 108.45 34.4 92.475 33.95z" />
    <glyph glyph-name="discover"
      unicode="&#xEA1E;"
      horiz-adv-x="144" d="M143.55 102.125H0V10.1H144V102.125H143.55zM142.875 50.825C142.425 50.375 103.275 23.15 32.4 11H1.125V101H143.1C142.875 100.325 142.875 74.45 142.875 50.825zM20.025 55.325A10.35 10.35 0 0 1 23.85 63.425C23.85 69.5 19.35 73.775 12.6 73.775H6.525V52.85H12.375C15.75 53.075 18 53.75 20.025 55.325zM10.575 56.45V69.95H11.7C14.4 69.95 15.975 69.5 17.325 68.375C18.675 67.025 19.575 65.225 19.575 63.2C19.575 61.175 18.675 59.15 17.325 58.025C15.975 56.9 14.4 56.45 11.7 56.45H10.575zM25.65 73.775H29.7V52.85H25.65zM38.25 56C36.225 56 34.65 56.9 33.75 58.7L31.05 56.225C32.85 53.525 35.1 52.175 38.25 52.175C42.525 52.175 45.45 54.875 45.45 58.925C45.45 62.3 44.1 63.65 39.375 65.45C36.9 66.35 36.225 67.025 36.225 68.15C36.225 69.5 37.575 70.4 39.15 70.4C40.275 70.4 41.4 69.95 42.525 68.6L44.55 71.3C42.75 72.875 40.725 73.55 38.475 73.55C34.875 73.55 31.95 71.075 31.95 67.475C31.95 64.55 33.3 63.2 37.125 61.85C38.7 61.4 39.6 60.95 39.825 60.725C40.725 60.275 40.95 59.375 40.95 58.475C41.4 57.575 40.05 56 38.25 56zM57.825 52.625C59.625 52.625 60.975 53.075 63 53.75V58.25C61.425 56.675 59.85 56 58.05 56C54 56 51.075 58.925 51.075 63.2C51.075 67.25 54 70.4 57.825 70.4C59.85 70.4 61.2 69.725 63 68.15V72.875C61.2 73.775 59.85 74.225 58.05 74.225C51.975 74.225 47.025 69.275 47.025 63.425C47.025 57.125 51.75 52.625 57.825 52.625zM96.3 52.4L105.3 73.775H100.8L95.175 59.825L89.775 73.775H85.275L94.05 52.4zM118.575 56.45H111.15V62.075H118.35V65.45H111.15V70.4H118.575V73.775H107.1V53.075H118.575zM125.325 61.4H126L131.625 53.075H136.575L130.05 61.85C133.2 62.525 134.775 64.55 134.775 67.7C134.775 71.525 132.075 73.775 127.35 73.775H121.275V52.85H125.325V61.4zM125.325 70.625H126.675C129.15 70.625 130.5 69.5 130.5 67.475C130.5 65.45 129.15 64.325 126.45 64.325H125.325V70.625zM75.375 52.4C80.325 52.4 84.6 55.775 85.95 60.275C86.175 61.4 86.4 62.525 86.4 63.65C86.4 69.725 81.45 74.675 75.375 74.675C70.875 74.675 66.825 71.975 65.25 67.925C64.8 66.575 64.35 65.225 64.35 63.65C64.35 57.125 69.3 52.4 75.375 52.4zM136.125 72.2L136.8 71.525H137.25L136.575 72.2C136.8 72.2 137.025 72.425 137.025 72.65C137.025 73.1 136.8 73.325 136.35 73.325H135.675V71.75H136.125V72.2zM136.575 73.1C136.8 73.1 136.8 73.1 136.575 73.1C136.8 72.65 136.575 72.65 136.575 72.65V73.1zM136.575 71.075C137.475 71.075 138.15 71.75 138.15 72.65C138.15 73.55 137.475 74.225 136.575 74.225C135.675 74.225 135 73.55 135 72.65C135 71.75 135.675 71.075 136.575 71.075zM136.575 74C137.25 74 137.925 73.325 137.925 72.65S137.25 71.3 136.575 71.3S135.225 71.975 135.225 72.65S135.9 74 136.575 74z" />
    <glyph glyph-name="docker"
      unicode="&#xEA1F;"
      horiz-adv-x="144" d="M78.75 60.5H63.9V73.775H78.75V60.5zM78.75 106.4H63.9V92.675H78.75V106.4zM96.3 73.775H81.45V60.5H96.3V73.775zM61.2 89.975H46.35V76.475H61.2V89.975zM78.75 89.975H63.9V76.475H78.75V89.975zM141.075 67.475C137.925 69.725 130.275 70.4 124.65 69.275C123.975 74.675 120.825 79.4 115.425 83.675L112.275 85.7L110.25 82.55C106.2 76.25 105.075 65.9 109.35 59.15C107.325 58.025 103.5 56.675 98.55 56.675H0.45C-1.575 45.2 1.8 30.35 10.35 20.225C18.675 10.325 31.275 5.375 47.475 5.375C82.8 5.375 109.125 21.575 121.275 51.275C126 51.275 136.575 51.275 141.75 61.4C141.975 61.85 143.325 64.325 143.55 65.225L141.075 67.475zM26.1 73.775H11.25V60.5H26.1V73.775zM43.65 73.775H28.8V60.5H43.65V73.775zM61.2 73.775H46.35V60.5H61.2V73.775zM43.65 89.975H28.8V76.475H43.65V89.975z" />
    <glyph glyph-name="dribbble"
      unicode="&#xEA20;"
      horiz-adv-x="144" d="M72 128C32.4 128 0 95.6 0 56S32.4 -16 72 -16S144 16.4 144 56S111.6 128 72 128zM132.75 54.2C118.8 55.325 104.175 54.2 89.775 50.825C87.75 56.225 85.725 61.4 83.475 66.35C98.325 71.3 112.05 78.5 123.975 87.275C129.6 78.05 132.75 67.475 132.75 56V54.2zM117.45 96.275C106.2 87.95 92.925 81.2 78.75 76.475C71.325 91.325 62.775 104.15 54 113.825C59.625 115.85 65.7 116.75 72 116.75C90 116.75 106.2 108.875 117.45 96.275zM42.75 109.325C51.525 100.55 60.075 88.175 67.725 73.55C49.275 69.05 30.15 68.375 13.275 71.525C17.55 87.725 28.35 101.225 42.75 109.325zM11.475 60.275C19.125 58.925 27.225 58.025 35.325 58.025C47.475 58.025 60.075 59.6 72.675 62.975C74.925 58.025 76.95 53.075 78.975 47.9C58.05 41.6 39.6 31.25 24.75 17.975C16.2 28.325 11.25 41.6 11.25 56C11.25 57.35 11.25 58.925 11.475 60.275zM32.625 9.875C46.35 22.025 63.45 31.475 82.575 37.325C83.25 35.075 84.15 32.6 84.825 30.125C87.975 19.325 90.225 8.75 92.025 -1.375C85.725 -3.625 79.2 -4.75 72.225 -4.75C56.925 -4.75 43.2 0.875 32.625 9.875zM102.375 3.575C100.8 13.25 98.325 23.15 95.4 33.275L93.375 40.025C106.2 42.725 119.025 43.85 131.175 42.95C127.575 26.075 117 11.9 102.375 3.575z" />
    <glyph glyph-name="dropbox"
      unicode="&#xEA21;"
      horiz-adv-x="144" d="M140.625 59.6L119.25 73.325L140.85 87.275C142.875 88.625 144.225 90.875 144 93.35C144 95.825 142.65 97.85 140.4 99.2L106.65 120.8C104.4 122.375 101.25 122.375 98.775 120.8L72 103.7L45.225 120.8C42.75 122.6 39.375 122.6 36.9 120.8L3.15 99.2C1.125 97.85 0 95.6 0 93.125S1.125 88.4 3.375 87.05L24.75 73.325L3.15 59.6C1.125 58.25 0 56 0 53.525S1.125 48.8 3.375 47.45L24.75 33.725V21.575C24.75 19.1 26.1 16.85 28.35 15.5L69.525 -9.025C70.65 -9.7 72 -10.15 73.35 -10.15C74.7 -10.15 75.825 -9.7 76.95 -9.025L118.125 15.5C120.15 16.85 121.5 19.1 121.5 21.575V35.525L140.625 47.675C142.65 49.025 143.775 51.275 143.775 53.75C143.775 56 142.65 58.25 140.625 59.6zM98.325 73.325L72 56.45L45.675 73.55L72 90.2L96.75 74.225L98.325 73.325zM102.825 110L129.15 93.125L108.9 80.075L105.75 81.875L82.35 96.95L102.825 110zM14.85 93.125L41.175 110L61.65 96.95L35.55 80.075H35.1L14.85 93.125zM35.1 66.8L61.425 49.7L40.95 36.65L14.85 53.525L35.1 66.8zM36 26.525L37.35 25.625C38.475 24.95 39.825 24.5 41.175 24.5C42.525 24.5 43.875 24.95 45 25.625L67.5 40.025V5.15L36 23.825V26.525zM110.25 23.825L78.75 5.15V38.9L99 26.075C100.125 25.4 101.475 24.95 102.825 24.95C104.175 24.95 105.525 25.4 106.65 26.075L110.25 28.325V23.825zM102.825 36.875L82.35 49.925L108.675 66.8L128.925 53.75L102.825 36.875z" />
    <glyph glyph-name="drupal-original"
      unicode="&#xEA22;"
      horiz-adv-x="144" d="M103.275 101.225C103.05 101.225 103.05 101.45 103.05 101.45C96.75 105.5 90.675 107.3 84.6 110.675C83.7 111.125 83.025 111.8 82.125 112.25C77.85 115.4 71.775 122.375 66.825 128.225C66.6 125.3 66.15 122.825 65.475 120.8C64.35 116.75 62.325 114.275 60.3 112.475C60.075 112.25 59.85 112.25 59.625 112.025C52.425 106.4 48.15 104.825 42.075 101.45C41.625 101.225 40.725 100.775 39.825 100.1C36.225 97.85 29.7 93.35 23.625 86.375C15.975 77.375 9 64.325 9 46.325C9 44.3 9.225 42.05 9.225 40.025V39.575C9.45 38.675 9.45 37.55 9.675 36.65V36.425C10.125 33.275 10.8 30.575 11.7 27.875C11.7 27.65 11.7 27.65 11.925 27.65C12.15 26.75 12.6 26.075 12.825 25.175C13.05 24.95 13.05 24.725 13.05 24.5C13.275 23.825 13.725 22.925 14.175 22.025C14.175 21.8 14.4 21.8 14.4 21.575C15.3 19.55 16.2 17.75 17.325 15.95C17.55 15.5 18 15.05 18.225 14.6S18.675 13.925 18.9 13.475C19.35 12.8 19.575 12.35 20.025 11.9C20.25 11.45 20.7 11 20.925 10.775C21.6 10.1 22.05 9.2 22.95 8.3C23.4 7.85 23.85 7.175 24.075 6.725C24.525 6.275 24.75 5.825 25.2 5.375L26.55 4.025L27.675 2.9C28.35 2.225 28.8 1.775 29.475 1.325C29.925 0.875 30.375 0.65 30.825 0.2C31.5 -0.475 32.175 -0.925 32.85 -1.375C33.3 -1.6 33.525 -2.05 33.975 -2.275L36 -3.625C36.225 -3.85 36.675 -4.075 37.125 -4.3C38.25 -4.975 39.15 -5.425 40.275 -6.1C40.5 -6.325 40.725 -6.325 40.95 -6.325L43.65 -7.675C43.875 -7.9 44.325 -7.9 44.55 -8.125C45.45 -8.575 46.35 -9.025 47.475 -9.25C47.7 -9.475 47.7 -9.475 48.15 -9.475C49.275 -9.925 50.625 -10.375 51.75 -10.825C51.975 -10.825 51.975 -11.05 52.2 -11.05C53.325 -11.275 54.45 -11.725 55.575 -12.175C55.8 -12.175 56.025 -12.4 56.25 -12.4C58.725 -13.075 61.425 -13.525 64.125 -13.9750000000001H64.35C65.7 -14.2 66.825 -14.2 68.4 -14.4250000000001H68.625C69.75 -16.0000000000001 71.1 -16.0000000000001 72.675 -16.0000000000001C106.2 -16.0000000000001 135.225 8.2999999999999 135.225 45.1999999999999C135 81.65 107.55 98.3 103.275 101.2249999999999zM22.725 78.05C22.275 78.275 20.25 79.625 22.275 82.775C29.025 93.35 42.075 100.325 45.9 102.125C47.25 102.8 53.325 105.725 59.625 110.45C63.45 113.375 66.15 116.3 67.275 125.3C68.175 122.15 68.4 119.45 68.4 116.075C68.175 112.475 64.8 110.225 64.35 109.775C63.675 109.1 60.75 107.75 60.075 107.3C59.4 106.85 59.4 106.625 60.075 106.625C61.2 106.4 61.875 105.95 61.875 105.05C61.875 104.375 61.425 102.575 58.275 99.2C52.425 93.35 48.15 89.525 38.025 83.45C27.9 77.15 23.175 77.825 22.725 78.05zM103.95 -3.175C103.275 -3.85 96.75 -8.35 89.325 -9.025C81.9 -9.7 71.775 -10.15 65.7 -4.525C64.8 -3.625 65.025 -2.05 65.7 -1.6C66.375 -0.925 66.825 -0.7 67.725 -0.7C68.4 -0.7 68.4 -0.7 68.85 -0.925C71.55 -3.175 75.825 -4.975 84.6 -4.975C93.6 -4.975 99.9 -2.5 102.6 -0.475C103.725 0.425 104.4 -0.25 104.625 -0.925C104.625 -1.375 105.075 -2.275 103.95 -3.175zM79.65 9.425C81.225 10.775 83.7 13.025 85.95 13.925C88.425 14.825 89.55 14.6 91.8 14.6S96.3 14.375 98.1 13.475C99.675 12.35 100.575 9.875 101.25 8.525C101.925 7.175 101.25 6.275 100.125 5.825C99.225 5.15 99 5.6 98.1 7.4C97.2 9.2 96.3 11 91.35 11S85.05 9.425 82.575 7.4C80.1 5.375 79.425 4.925 78.525 5.825C77.85 6.95 78.075 8.075 79.65 9.425zM116.55 8.3C111.6 8.75 101.475 24.275 95.175 24.5C87.075 24.725 69.75 7.625 55.8 7.625C47.475 7.625 45 8.75 42.075 10.775C38.025 13.7 35.775 18.2 36 24.275C36.225 35.075 46.35 45.2 59.175 45.425C75.375 45.65 86.625 29.225 94.95 29.45C101.925 29.675 115.2 43.175 121.725 43.175C128.7 43.175 130.725 35.975 130.725 31.7S129.375 19.55 126 14.6C122.4 9.875 120.375 8.075 116.55 8.3z" />
    <glyph glyph-name="drupal"
      unicode="&#xEA23;"
      horiz-adv-x="144" d="M90.225 101.9C88.425 102.35 86.85 103.7 85.725 105.275C84.825 106.4 83.925 107.525 82.8 109.325L72.225 124.175C70.2 127.325 66.15 128.9 62.55 128.225C58.725 127.55 55.575 124.625 54.9 120.8L51.3 104.6C50.625 102.125 48.825 100.325 46.125 99.2C23.625 89.525 9 68.15 9 44.3C9 11 37.35 -16 72 -16S135 11 135 44.3C135 70.175 116.55 94.025 90.225 101.9zM72 -4.75C43.425 -4.75 20.25 17.3 20.25 44.3C20.25 63.65 32.175 80.975 50.625 88.625C56.475 91.1 60.75 95.825 62.325 101.45L65.025 114.5L73.575 102.575C74.7 100.775 75.825 99.425 76.725 98.3C79.2 94.925 83.025 92.225 87.075 91.1C108.675 84.575 123.75 65.225 123.75 44.3C123.75 17.3 100.575 -4.75 72 -4.75zM116.55 60.725C115.425 65 112.95 68.825 109.35 71.075C106.65 72.875 103.275 73.55 99.675 73.55C97.2 73.325 94.95 72.875 92.7 71.975C90.45 71.075 88.425 69.725 86.85 68.6L85.725 67.925C85.5 67.7 85.275 67.7 85.05 67.475C84.825 67.7 84.6 67.7 84.6 67.925L83.25 68.6C82.125 69.5 80.55 70.625 78.75 71.525C70.875 75.35 62.1 76.475 54.675 74.225C49.275 72.65 44.775 69.05 41.85 64.1C39.375 59.6 38.7 53.975 40.05 48.575C41.625 42.725 45.225 37.775 49.95 34.85C53.1 33.05 56.475 32.15 60.3 32.15C62.1 32.15 63.9 32.375 66.15 32.825C73.8 34.85 79.425 39.35 84.375 43.85C84.825 43.175 85.275 42.275 85.95 41.375C90.675 35.525 99.45 31.7 107.325 35.75C110.925 37.55 115.65 41.825 117 51.05C117.45 55.1 117.225 58.025 116.55 60.725zM80.775 56.225L77.625 53.525C73.125 49.475 68.625 45.425 63.225 44.075C61.875 43.85 60.75 43.625 60.075 43.625C58.5 43.625 56.925 44.075 55.575 44.75C53.325 46.1 51.525 48.575 50.85 51.5C50.175 53.975 50.625 56.9 51.525 58.7C52.875 60.95 55.125 62.75 57.6 63.425C59.175 63.875 60.975 64.1 62.775 64.1C66.375 64.1 70.2 63.2 73.8 61.4L74.025 61.175C74.7 60.95 75.6 60.275 76.5 59.6L77.4 58.925C77.85 58.475 78.525 58.025 78.975 57.8C79.65 57.35 80.55 56.9 81.225 56.45C81.225 56.45 81 56.225 80.775 56.225zM105.75 52.85C105.525 50.375 104.625 47.225 102.15 46.1C99.675 44.75 96.3 46.55 94.725 48.8C94.275 49.25 93.825 50.15 93.375 51.05L92.7 52.4C91.35 54.65 90.45 56.225 89.1 57.125C90 57.575 90.9 58.025 91.575 58.475L92.7 59.15C94.05 60.05 95.4 60.95 96.75 61.4C97.875 61.85 99 62.075 100.35 62.075C101.7 62.075 102.6 61.85 103.275 61.4L103.5 61.175C104.625 60.5 105.3 59.375 105.75 57.8V57.575C105.975 56.675 105.975 55.1 105.75 52.85zM83.025 15.5C80.775 14.15 78.075 13.475 75.375 13.25C74.475 13.25 73.35 13.25 72.45 13.475C70.65 13.7 68.625 14.15 66.825 15.05C63.9 16.175 60.75 14.825 59.4 12.125C58.275 9.2 59.625 6.05 62.325 4.7C65.25 3.575 68.175 2.675 70.875 2.45C72.675 2.225 74.25 2.225 75.375 2.225H76.05C80.55 2.45 85.05 3.8 88.65 6.05C91.35 7.625 92.25 11 90.675 13.7C89.1 16.175 85.725 17.075 83.025 15.5zM91.8 33.05C88.65 35.075 84.6 35.975 80.55 35.3C76.275 34.4 72.675 32.15 70.425 28.55C68.625 25.85 69.525 22.475 72 20.675C72.9 20 74.025 19.775 75.15 19.775C76.95 19.775 78.75 20.675 79.875 22.25C80.325 23.15 81.45 23.825 82.575 24.05C83.7 24.275 84.825 24.05 85.725 23.375C86.175 23.15 86.625 22.7 87.075 22.25C89.325 20 92.925 20.225 94.95 22.475C97.2 24.725 96.975 28.325 94.725 30.35C94.275 31.25 93.15 32.15 91.8 33.05z" />
    <glyph glyph-name="edge"
      unicode="&#xEA24;"
      horiz-adv-x="144" d="M5.175 64.1zM138.825 59.6C138.825 72.425 136.575 84.125 130.5 95.15C118.575 116.525 97.425 128 72.9 128C32.175 128 9.45 97.4 5.175 64.325C17.55 82.1 39.15 99.65 69.075 100.55C69.075 100.55 101.025 100.55 97.875 70.175H47.025C48.825 80.975 52.425 87.275 56.925 93.125C35.1 82.775 21.6 65 22.05 38.225C22.275 17.525 36.675 -3.85 57.15 -11.725C81.45 -20.95 113.175 -13.75 126.9 -5.425V24.95C103.5 8.525 48.15 7.175 47.925 44.525H139.05L138.825 59.6z" />
    <glyph glyph-name="envato"
      unicode="&#xEA25;"
      horiz-adv-x="144" d="M116.55 126.875C114.3 128 110.25 128.225 104.85 127.55C91.8 125.975 79.875 119.9 70.2 111.125C51.975 94.475 38.475 71.525 37.125 39.125C36.9 38.225 34.425 39.35 33.75 39.575C26.775 52.85 24.075 66.575 29.925 86.6C31.05 88.4 27.45 90.65 26.775 89.975C25.425 88.625 20.25 83.225 16.875 77.15C-0.225 47 11.025 8.75 41.4 -8.125C71.55 -25 109.8 -14.2 126.675 16.175C146.025 51.05 127.8 120.575 116.55 126.875z" />
    <glyph glyph-name="facebook-filled"
      unicode="&#xEA26;"
      horiz-adv-x="144" d="M107.775 70.4H90V94.25H104.625C107.1 94.25 109.125 96.275 109.125 98.75V123.5C109.125 125.975 107.1 128 104.625 128H87.525C69.075 128 56.25 114.725 56.25 95.6V70.4H36C32.625 70.4 29.925 67.7 29.925 64.1V47.45C29.925 44.075 32.625 41.375 36 41.375H56.25V-10.15C56.25 -13.525 58.95 -16.225 62.325 -16.225H84.375C85.725 -16.225 87.075 -15.55 87.975 -14.65C89.1 -13.525 89.55 -11.95 89.55 -10.6V41.6H104.85C107.775 41.6 110.25 43.625 110.7 46.325V46.775L113.85 62.75C114.3 64.55 113.85 66.35 112.5 68.15C111.6 69.275 109.8 70.175 107.775 70.4z" />
    <glyph glyph-name="cpanel"
      unicode="&#xEA27;"
      horiz-adv-x="144" d="M47.25 62.525C45.9 68.15 41.175 71.75 35.775 71.75H27.45C25.875 71.75 24.525 70.625 24.3 69.275L16.425 40.25H22.05C23.625 40.25 24.75 41.375 25.2 42.725L31.05 64.325H35.55C37.35 64.325 39.15 62.975 39.6 60.95C40.275 58.475 38.25 55.775 35.55 55.775H33.3C31.725 55.775 30.375 54.65 30.15 53.3L28.8 47.9H36C44.1 47.9 48.825 56 47.25 62.525zM12.15 56.225H16.425C18 56.225 19.125 57.125 19.575 58.7L20.925 64.1H11.925C6.75 64.1 2.025 60.95 0.45 54.875C-1.575 47.225 4.275 40.25 11.7 40.25H14.4L15.975 46.1C16.2 47 15.525 47.9 14.625 47.9H12.15C6.525 47.9 6.525 56.225 12.15 56.225zM67.725 64.1H50.175L49.5 61.175C49.05 58.925 50.625 56.9 52.65 56.9H65.7C66.6 56.9 66.15 56 66.15 55.775L64.125 48.575C64.125 48.35 63.9 47.45 62.775 47.45H54.9C53.775 47.45 53.775 49.25 54.9 49.25H59.85C61.425 49.25 62.55 50.375 63 51.725L63.9 54.65H53.1C44.325 54.65 43.2 40.25 52.875 40.25H65.925C68.4 40.25 70.65 41.825 71.1 44.3L74.25 56C75.375 60.275 72 64.1 67.725 64.1zM142.425 71.975H138.15C137.025 71.975 136.125 71.3 135.9 70.175L127.8 40.25C132.525 40.25 136.8 43.4 137.925 48.125L144 70.175C144.225 71.075 143.55 71.975 142.425 71.975zM89.325 64.1H78.525L72.675 42.05C72.45 41.15 73.125 40.25 74.025 40.25H78.3C79.425 40.25 80.325 40.925 80.55 42.05L84.375 56.45H88.875C91.8 56.45 93.6 53.75 92.925 51.275L90.45 42.275C90.225 41.375 90.9 40.475 91.8 40.475H96.075C97.2 40.475 98.1 41.15 98.325 42.275L100.35 49.7C102.6 56.9 96.975 64.1 89.325 64.1zM111.375 47.225C110.475 47.225 110.025 47.9 110.25 48.8L112.05 55.55C112.275 56.45 112.95 56.9 113.85 56.9H121.275C121.95 56.9 122.4 56.45 122.175 55.775L121.95 55.1C121.725 54.65 121.5 54.425 121.05 54.425H116.1C114.525 54.425 113.175 53.3 112.95 51.95L112.05 49.025H123.975C126.45 49.025 128.475 50.6 129.15 53.075L129.825 55.775C130.95 60.05 127.8 64.1 123.525 64.1H112.95C108.9 64.1 105.3 61.4 104.175 57.35L101.7 48.35C100.575 44.3 103.5 40.025 108 40.025H123.075C124.65 40.025 125.775 41.15 126.225 42.5L127.575 47.225H111.375z" />
    <glyph glyph-name="creative-commons"
      unicode="&#xEA28;"
      horiz-adv-x="144" d="M71.325 67.925L61.65 62.975C58.95 68.6 54.225 68.825 53.775 68.825C47.25 68.825 44.1 64.55 44.1 56C44.1 49.25 46.8 43.175 53.775 43.175C58.05 43.175 60.975 45.2 62.55 49.25L71.325 44.75C69.525 41.375 63.9 33.5 52.425 33.5C45.9 33.5 31.05 36.425 31.05 55.775C31.05 72.875 43.425 78.05 52.2 78.05C61.2 78.275 67.5 74.9 71.325 67.925zM112.95 67.925L103.5 62.975C100.8 68.825 96.075 68.825 95.4 68.825C88.875 68.825 85.725 64.55 85.725 56C85.725 49.25 88.425 43.175 95.4 43.175C99.675 43.175 102.6 45.2 104.175 49.25L113.175 44.75C112.5 43.625 106.875 33.5 94.275 33.5C87.75 33.5 72.9 36.425 72.9 55.775C72.9 72.875 85.275 78.05 94.05 78.05C102.825 78.275 109.125 74.9 112.95 67.925zM71.775 128C30.375 128 0 94.7 0 56C0 15.725 33.075 -16 71.775 -16C109.575 -16 144 13.25 144 56C144 96.05 112.95 128 71.775 128zM72.225 -2.95C39.6 -2.95 13.05 24.05 13.05 56C13.05 86.6 37.8 114.95 72.225 114.95C104.85 114.95 131.175 89.075 131.175 56C130.95 20.675 102.15 -2.95 72.225 -2.95z" />
    <glyph glyph-name="facebook-messenger"
      unicode="&#xEA29;"
      horiz-adv-x="144" d="M72 128C31.5 128 0 98.075 0 58.25C0 37.1 8.55 18.875 22.5 6.5C23.625 5.6 24.3 4.025 24.525 2.45L24.75 -10.375C24.975 -14.425 29.025 -17.125 32.85 -15.55L47.25 -9.25C48.375 -8.8 49.725 -8.575 51.075 -9.025C57.6 -10.825 64.575 -11.95 72 -11.95C112.5 -11.95 144 17.75 144 57.8S112.5 128 72 128zM115.2 74.225L94.05 40.7C90.675 35.3 83.475 33.95 78.525 37.775L61.875 50.375C60.3 51.5 58.275 51.5 56.7 50.375L33.75 33.275C30.825 31.025 26.775 34.625 28.8 37.775L49.95 71.3C53.325 76.7 60.525 78.05 65.475 74.225L82.125 61.625C83.7 60.5 85.725 60.5 87.3 61.625L110.025 78.95C113.4 80.975 117.225 77.375 115.2 74.225z" />
    <glyph glyph-name="facebook-original"
      unicode="&#xEA2A;"
      horiz-adv-x="144" d="M136.125 128H8.1C3.6 128 0 124.4 0 119.9V-8.125C0 -12.625 3.6 -16.225 8.1 -16.225H76.95V39.575H58.275V61.4H76.95V77.375C76.95 96.05 88.2 106.175 104.85 106.175C110.475 106.175 116.1 105.95 121.5 105.275V85.925H110.25C101.25 85.925 99.45 81.65 99.45 75.35V61.4H121.05L118.35 39.575H99.675V-16H136.35C140.85 -16 144.45 -12.4 144.45 -7.9V119.9C144 124.4 140.4 128 136.125 128z" />
    <glyph glyph-name="facebook-oval"
      unicode="&#xEA2B;"
      horiz-adv-x="144" d="M72 128C32.175 128 0 95.825 0 56S32.175 -16 72 -16S144 16.175 144 56S111.825 128 72 128zM91.125 84.125H83.925C80.775 84.125 78.75 82.55 78.75 79.4C78.525 76.925 78.75 74.225 78.75 71.75C78.75 70.85 79.2 70.85 79.875 70.85H90.675C91.8 70.85 92.025 70.625 92.025 69.5C91.575 65.225 91.125 60.95 90.9 56.9C90.9 56 90.45 55.775 89.55 55.775H81C78.975 55.775 79.2 56 79.2 53.975V14.375C79.2 13.025 78.75 12.575 77.4 12.575H62.55C61.2 12.575 60.975 13.025 60.975 14.15V34.175V54.425C60.975 55.55 60.75 56 59.625 55.775H53.325C52.425 55.775 52.2 56 52.2 56.9V69.5C52.2 70.4 52.425 70.625 53.325 70.625H59.85C61.2 70.625 61.425 71.075 61.425 72.2V81.875C61.425 85.7 62.55 89.525 64.8 92.675C67.725 96.725 72 98.525 76.725 98.75C81.675 98.975 86.625 98.75 91.575 98.975C92.25 98.975 92.475 98.75 92.475 98.075V85.25C92.025 84.35 91.8 84.125 91.125 84.125z" />
    <glyph glyph-name="facebook"
      unicode="&#xEA2C;"
      horiz-adv-x="144" d="M83.7 -16H63C57.375 -16 52.875 -11.5 52.875 -5.875V44.75H38.25C32.625 44.75 28.125 49.25 28.125 54.875V70.4C28.125 76.025 32.625 80.75 38.25 80.75H52.875V93.125C52.875 113.6 66.825 128 86.625 128H105.75C108.9 128 111.375 125.525 111.375 122.375V93.125C111.375 89.975 108.9 87.5 105.75 87.5H93.375V80.75H105.75C108.9 80.525 111.825 79.175 113.625 76.7C115.425 74.225 116.325 71.3 115.65 68.15L112.725 53.075C112.05 48.35 108 44.75 102.825 44.75H93.15V-5.875C93.375 -11.5 88.875 -16 83.7 -16zM64.125 -4.75H82.125V50.375C82.125 53.525 84.6 56 87.75 56H101.925L104.625 69.5H87.75C84.6 69.5 82.125 71.975 82.125 75.125V93.125C82.125 96.275 84.6 98.75 87.75 98.75H100.125V116.75H86.625C72.9 116.75 64.125 107.525 64.125 93.125V75.125C64.125 71.975 61.65 69.5 58.5 69.5H39.375V56H58.5C61.65 56 64.125 53.525 64.125 50.375V-4.75z" />
    <glyph glyph-name="figma"
      unicode="&#xEA2D;"
      horiz-adv-x="144" d="M96.075 80.075C109.35 80.075 120.15 90.875 120.15 104.15S109.35 128 96.075 128H47.925C34.65 128 23.85 117.2 23.85 103.925S34.65 79.85 47.925 79.85C34.65 79.85 23.85 69.05 23.85 55.775C23.85 42.5 34.65 31.7 47.925 31.7C34.65 31.7 23.85 20.9 23.85 7.625S34.65 -16 47.925 -16C61.2 -16 72 -5.2 72 8.075V80.075H96.075zM96.075 80.075C82.8 80.075 72 69.275 72 56S82.8 31.925 96.075 31.925C109.35 31.925 120.15 42.725 120.15 56C119.925 69.275 109.35 80.075 96.075 80.075z" />
    <glyph glyph-name="firefox-original"
      unicode="&#xEA2E;"
      horiz-adv-x="144" d="M141.3 62.3C141.075 63.65 140.85 64.325 140.85 64.325S140.4 63.65 139.5 62.525C139.275 65.675 138.6 68.6 137.925 71.75C136.8 75.575 135.45 79.175 133.65 82.55C132.525 84.8 131.175 87.05 129.825 89.075C129.375 89.75 128.7 90.65 128.25 91.325C125.775 95.6 122.625 98.075 119.25 103.025C117 106.85 115.425 110.9 114.75 115.175C113.85 112.475 113.175 110 112.5 107.3C108.9 110.9 105.975 113.375 104.175 115.175C95.175 123.5 96.075 128 96.075 128S79.2 109.1 86.4 89.3C88.875 82.55 93.375 76.7 99 72.425C106.2 66.575 113.85 61.85 117.9 50.15C114.75 56.45 109.8 61.625 103.725 65.225C105.525 60.95 106.425 56.225 106.425 51.725C106.425 33.95 92.025 19.55 74.25 19.55C71.775 19.55 69.525 19.775 67.05 20.45C64.35 20.9 61.65 21.8 59.175 23.15C55.35 25.4 52.2 28.325 49.725 31.925L50.4 31.7C51.75 31.25 53.1 30.8 54.45 30.575C59.85 29.45 65.7000000000001 30.125 70.65 32.6C75.8250000000001 35.525 78.75 37.55 81.225 36.65C83.7000000000001 35.975 85.5 38.225 83.925 40.7C81 44.525 76.05 46.55 71.1 45.65C65.925 44.975 61.425 41.375 54.675 44.75L53.325 45.425C52.875 45.65 54.675 44.975 54.225 45.425C52.875 46.1 51.3 47 49.95 47.9C49.95 47.9 51.075 47.675 50.85 47.675C49.05 48.8 47.7 50.375 46.575 52.175C45.45 54.425 45.225 56.9 46.35 59.15C47.025 60.275 47.925 61.175 49.05 61.625L50.4 60.95S49.95 61.625 49.725 62.075H49.95C50.625 61.85 52.425 60.95 53.325 60.5C54 60.275 54.45 59.825 54.9 59.15C54.9 59.15 55.125 59.375 54.9 59.825C54.675 60.5 54 61.175 53.325 61.85C54 61.4 54.675 61.175 55.35 60.725C55.8 62.075 56.25 63.425 56.025 64.775C56.025 65.45 56.025 66.35 55.8 67.025C55.575 67.475 56.025 67.7 56.25 67.25C56.25 67.7 56.025 67.925 55.8 68.375L56.25 68.825C56.475 69.05 56.925 69.275 57.15 69.5C59.175 70.85 61.425 71.975 63.675 72.875C65.475 73.775 67.05 74.225 67.5 74.45C67.95 74.675 68.4 75.125 68.85 75.575C70.425 76.925 71.55 78.725 71.775 80.75V82.1C71.55 83.225 69.75 83.9 60.525 84.8C57.375 85.25 54.675 87.725 54 90.875C55.8 95.375 58.95 99.425 63 102.125C63.225 102.35 62.1 102.125 62.325 102.35C63 102.8 63.9 103.025 64.8 103.475C65.25 103.7 63 104.375 61.2 104.15C60.075 104.15 58.95 103.7 57.825 103.25C58.275 103.7 59.625 104.15 59.4 104.15C56.925 103.7 54.675 102.8 52.425 101.45C52.425 101.675 52.425 101.9 52.65 102.125C50.85 101.45 49.5 100.325 48.375 98.75V99.425C47.7 98.75 46.8 98.075 46.35 97.4C41.4 99.425 35.775 99.875 30.375 98.75C29.25 99.65 28.35 100.775 27.45 101.9H27.225C26.775 102.35 26.55 103.025 26.1 103.7C25.875 104.15 25.65 104.6 25.425 105.275C25.2 105.275 25.2 104.825 25.2 104.825C24.3 107.3 23.85 109.775 23.85 112.475C22.275 111.35 21.15 110 20.475 108.2C20.25 107.525 20.025 107.3 19.8 106.85V107.075C19.8 107.3 20.025 107.975 20.025 107.975V107.75C19.35 107.3 19.125 106.625 18.675 106.175C18.45 105.5 18.225 105.05 18 104.375V104.6V105.05V104.825C15.975 100.55 14.85 95.825 14.4 91.1C14.175 90.2 14.175 89.525 14.175 88.625C12.825 87.05 11.475 85.475 10.575 83.675C6.975 77.825 4.5 71.3 2.7 64.55C3.825 67.025 5.175 69.5 6.75 71.75C3.825 64.1 2.25 55.775 2.25 47.225C2.7 49.7 3.375 52.175 4.275 54.65C3.825 44.525 5.625 34.625 9.9 25.4C15.525 12.8 24.975 2.225 36.675 -4.975C41.4 -8.125 46.8 -10.825 52.425 -12.4C53.1 -12.625 54 -12.85 54.675 -13.075C54.45 -13.075 54.225 -12.85 54 -12.85C60.525 -14.875 67.5 -15.775 74.25 -15.775C98.55 -15.775 106.65 -6.55 107.325 -5.65C108.45 -4.525 109.575 -3.175 110.25 -1.825L111.6 -1.15L111.825 -0.925L112.275 -0.7C115.875 1.1 119.475 3.125 122.625 5.825C127.35 9.2 130.725 14.15 132.3 19.775C133.2 21.8 133.2 24.05 132.525 26.3L133.2 27.65C138.375 35.975 141.3 45.65 141.75 55.55V56C141.75 58.025 141.75 60.05 141.3 62.3zM54.225 90.65C54 90.425 54 89.975 53.775 89.525C54 89.975 54.225 90.2 54.225 90.65z" />
    <glyph glyph-name="firefox"
      unicode="&#xEA2F;"
      horiz-adv-x="144" d="M96.469875 121.4890625C94.0798125 120.2425625 92.8434375 119.0140625 91.6745625 116.7235625C89.2490625 111.971 89.928 107.6931875 93.907125 102.6588125C96.672375 99.160625 99.5585625 93.6464375 101.2455 88.637375C101.898 86.702375 102.3553125 85.0851875 102.2625 85.0435625C98.02575 83.160875 95.8021875 80.9541875 94.593375 77.4318125C93.668625 74.7363125 93.7839375 72.5673125 95.0698125 68.4655625C96.465375 64.0139375 96.490125 59.88575 95.148 55.5725C94.102875 52.214375 91.5238125 47.9140625 89.6495625 46.404875C89.0623125 45.932375 89.249625 46.4155625 90.0984375 47.5625C92.545875 50.871125 93.375 53.0046875 93.375 55.994375C93.375 63.900875 86.7976875 68.3255 75.974625 67.698875C71.960625 67.4665625 70.831125 67.1414375 66.916125 65.0916875C64.4563125 63.8035625 62.328375 62.75 62.1883125 62.75C61.8103125 62.75 63.068625 66.285875 63.7605 67.1661875C64.089 67.5846875 65.76075 68.8143125 67.4758125 69.8988125C73.6790625 73.8216875 75.375 76.2730625 75.375 81.317C75.375 87.800375 71.1590625 91.7159375 63.1299375 92.6890625L61.853625 92.84375L63.387 94.99025C64.5643125 96.638375 64.96875 97.9445 65.1290625 100.61525C65.3900625 104.9684375 63.7700625 108.35525 60.2364375 110.84375C58.1754375 112.295 57.3553125 112.525625 54.3735 112.489625C50.1856875 112.439 44.8981875 110.1310625 40.1945625 106.2993125C37.634625 104.2146875 36.7486875 103.8125 34.714125 103.8125L32.2875 103.8125L31.6063125 107.112125C30.2383125 113.73275 25.2703125 117.821 19.510875 117.065C13.933125 116.3320625 10.476 113.1314375 7.6291875 106.0625C6.3945 102.99575 5.8123125 94.273625 6.6425625 91.2771875C7.1595 89.411375 7.0245 88.6469375 5.55075 85.0896875C4.626 82.8576875 3.200625 78.5 2.3833125 75.40625C1.056375 70.380875 0.8949375 68.731625 0.87075 59.9375C0.8499375 52.4489375 1.089 48.956375 1.8680625 45.3389375C7.630875 18.59825 27.11925 -1.3249375 54.5625 -8.5316875C59.0281875 -9.7045 61.6168125 -9.980125 70.3125 -10.2101875C79.4745 -10.452625 81.42525 -10.3395625 86.625 -9.2685625C102.1460625 -6.071875 114.1785 0.212375 124.3125 10.413875C139.2800625 25.4815625 145.46475 43.801625 143.4999375 67.25C142.4615625 79.6379375 139.3245 89.3613125 133.4205 98.4906875C127.328625 107.9103125 120.17025 114.3965 110.1571875 119.5675625C105.453 121.997 104.279625 122.3744375 101.4384375 122.371625C99.5630625 122.369375 97.4334375 121.991375 96.469875 121.4890625M107.654625 108.0695C112.4679375 105.2260625 119.077875 99.1375625 122.3893125 94.4969375C125.7946875 89.724125 129.1010625 82.485875 130.627125 76.4620625C131.73975 72.068375 131.891625 70.050125 131.8905 59.65625C131.8899375 47.0466875 131.6019375 45.1173125 128.4800625 36.80525C122.985 22.1735 109.193625 9.54425 92.6431875 3.9884375C80.179875 -0.1954375 63.336375 -0.161125 51.553125 4.07225C26.7969375 12.9659375 11.25 34.5029375 11.25 59.9043125C11.25 68.157875 13.9370625 78.921875 17.6596875 85.5824375C19.0119375 88.0023125 19.027125 88.1496875 18.174375 90.6516875C16.9981875 94.10375 17.4015 100.4751875 18.9894375 103.53125C19.7769375 105.04775 20.251125 105.5061875 20.4429375 104.9375C20.5993125 104.4734375 21.0335625 103.08125 21.4081875 101.84375C22.4026875 98.561 24.1070625 95.3114375 25.7608125 93.546875C27.20925 92.0016875 27.2176875 92 35.1219375 92L43.0335 92L45.0073125 94.671875C47.0109375 97.3836875 51.742125 101 53.28675 101C53.929125 101 53.7975 100.5584375 52.7416875 99.171875C51.976125 98.166125 50.8280625 96.3194375 50.19075 95.0673125C46.249875 87.3295625 49.7413125 82.5449375 60.05025 81.5571875L64.1311875 81.16625L60.3315 78.68225C56.089125 75.909125 55.143 74.9061875 53.127 71.046875C51.9316875 68.758625 51.4873125 68.375 50.0349375 68.375C42.528375 68.375 37.524375 58.5149375 42.784875 54.0880625C45.2289375 52.0315625 49.3160625 51.356 57.93975 51.582125L65.53125 51.78125L69.8641875 54.171875C73.7206875 56.2998125 74.6015625 56.5625 77.8798125 56.5625C79.905375 56.5625 81.5625 56.3549375 81.5625 56.10125C81.5625 54.9104375 77.3769375 50.96 74.433375 49.3720625C69.7651875 46.8543125 63.9421875 41.160125 62.7485625 37.9454375C61.880625 35.609375 61.869375 35.165 62.631 33.3425C63.8015625 30.5406875 66.2293125 29.4156875 71.71875 29.1321875C87.3073125 28.326125 101.3023125 38.1119375 106.122375 53.1875C107.4088125 57.21275 107.4200625 66.9096875 106.142625 70.8460625L105.249375 73.598375L107.073 71.8304375C110.67975 68.3350625 115.3125 70.28975 115.3125 75.30725C115.3125 85.131875 109.9209375 100.8335 103.9573125 108.3783125C101.5149375 111.468125 101.9649375 111.4304375 107.654625 108.0695" />
    <glyph glyph-name="flickr"
      unicode="&#xEA30;"
      horiz-adv-x="144" d="M0 56A31.05 31.05 0 0 1 62.1 56A31.05 31.05 0 0 1 0 56M81.9 56A31.05 31.05 0 0 1 144 56A31.05 31.05 0 0 1 81.9 56" />
    <glyph glyph-name="git"
      unicode="&#xEA31;"
      horiz-adv-x="144" d="M142.875 58.25L74.25 127.1C73.125 128.225 71.1 128.225 69.75 127.1L50.85 108.2L68.4 90.65C69.75 91.325 71.325 91.55 72.9 91.55C79.425 91.55 84.375 86.375 84.375 80.075C84.375 78.5 84.15 76.925 83.475 75.575L97.425 61.625C98.775 62.3 100.35 62.525 101.925 62.525C108.45 62.525 113.4 57.35 113.4 51.05C113.4 44.525 108.225 39.575 101.925 39.575C95.4 39.575 90.45 44.75 90.45 51.05C90.45 52.625 90.675 54.2 91.35 55.55L77.4 69.5H77.175V42.95C81.45 41.15 84.375 37.1 84.375 32.15C84.375 25.625 79.2 20.675 72.9 20.675C66.375 20.675 61.425 25.85 61.425 32.15C61.425 37.1 64.35 41.15 68.625 42.95V69.05C64.35 70.85 61.425 74.9 61.425 79.85C61.425 81.425 61.65 83 62.325 84.35L44.775 102.125L0.9 58.25C-0.225 57.125 -0.225 55.1 0.9 53.75L69.75 -15.1C70.875 -16.225 72.9 -16.225 74.25 -15.1L143.1 53.75C144.225 54.875 144.225 57.125 142.875 58.25z" />
    <glyph glyph-name="github-original"
      unicode="&#xEA32;"
      horiz-adv-x="144" d="M72 126.2C32.4 126.2 0 94.025 0 54.2C0 22.475 20.7 -4.525 49.275 -14.2C52.875 -14.875 54.225 -12.625 54.225 -10.825C54.225 -9.25 54.225 -4.525 54 1.55C33.975 -2.95 29.7 11.225 29.7 11.225C26.325 19.55 21.6 21.575 21.6 21.575C15.075 26.075 22.05 26.075 22.05 26.075C29.25 25.625 33.075 18.65 33.075 18.65C39.375 7.625 49.95 10.775 54 12.8C54.675 17.525 56.475 20.675 58.5 22.475C42.75 24.05 25.875 30.35 25.875 57.8C25.875 65.675 28.8 71.975 33.3 76.925C32.625 78.725 30.15 85.925 33.975 96.05C33.975 96.05 40.05 98.075 53.775 88.625C59.625 90.2 65.7 91.1 71.775 91.1S84.15 90.425 89.775 88.625C103.5 97.85 109.35 96.05 109.35 96.05C113.175 86.15 110.925 78.725 110.025 76.925C114.525 71.975 117.45 65.45 117.45 57.8C117.45 30.35 100.575 24.05 84.6 22.475C87.075 20.225 89.55 15.725 89.55 9.2C89.55 -0.475 89.325 -8.125 89.325 -10.375C89.325 -12.4 90.675 -14.425 94.275 -13.75C123.3 -4.3 144 22.7 144 54.425C143.775 94.025 111.6 126.2 72 126.2z" />
    <glyph glyph-name="github"
      unicode="&#xEA33;"
      horiz-adv-x="144" d="M144 58.25C142.425 95.375 112.275 125.525 75.15 126.875C55.35 127.775 36.45 120.575 22.05 106.85C7.875 93.125 0 74.675 0 54.875C0 22.475 21.825 -6.1 52.875 -14.425C53.775 -14.65 54.675 -14.875 55.575 -14.875C57.825 -14.875 60.075 -14.2 61.875 -12.625C64.35 -10.6 65.925 -7.675 65.925 -4.525V2.9C65.925 4.925 66.15 13.925 66.15 15.725C66.375 16.85 66.6 17.75 67.275 18.425C68.85 20.45 69.075 23.15 67.95 25.4C66.825 27.425 65.025 28.775 62.775 29C61.2 29.225 59.625 29.45 58.5 29.9C56.7 30.35 54.9 31.25 53.1 32.15C51.75 32.825 50.4 33.95 49.275 35.3C48.375 36.425 47.475 38.225 46.8 40.475C45.9 43.175 45.45 46.1 45.45 49.25C45.45 53.3 46.8 56.675 49.275 59.375L51.75 62.075L50.4 65.45C49.95 66.575 49.5 68.15 49.725 70.85C52.875 69.725 53.775 69.05 53.775 69.05L54 68.825C54.9 68.375 55.575 67.7 56.25 67.475L58.95 65.9L61.2 66.575C65.025 67.7 68.85 68.15 72.9 68.15C76.95 68.15 80.775 67.7 84.6 66.575L86.85 65.9L91.575 68.825C93.15 69.725 94.725 70.625 96.525 71.3C96.75 69.275 96.525 67.475 95.85 65.675L94.5 62.3L96.975 59.6C99.4500000000001 56.9 100.8 53.525 100.8 49.475C100.8 46.1 100.35 43.4 99.675 40.925C98.7750000000001 38.225 97.875 36.65 96.975 35.525C96.0750000000001 34.4 94.725 33.275 92.925 32.15C90.9000000000001 31.025 89.3250000000001 30.575 87.5250000000001 29.9C86.4000000000001 29.45 84.6000000000001 29.225 83.0250000000001 29H82.8C80.55 28.55 78.75 26.975 77.85 24.95C76.9500000000001 22.925 77.175 20.675 78.525 18.65C79.425 17.525 79.875 15.725 79.875 13.475V-4.3C79.875 -7.45 81.4500000000001 -10.6 83.925 -12.4C86.4 -14.2 89.775 -14.875 92.925 -13.975C124.875 -4.525 145.575 25.4 144 58.25zM91.575 -2.95V13.25C91.575 15.275 91.35 17.075 90.9 18.65C93.375 19.325 95.85 20.225 98.55 21.8L98.775 22.025C101.7 23.825 103.95 25.625 105.75 27.875C108 30.575 109.35 33.725 110.475 36.875C111.6 40.475 112.275 44.3 112.275 49.025C112.275 54.875 110.7 59.825 107.55 64.325C108.45 69.05 108 73.775 105.975 78.95L105.075 81.425L102.6 82.325C100.125 83.225 96.975 83 93.15 81.425C90.675 80.525 88.425 79.4 85.95 78.05L85.5 77.6C77.625 79.4 69.075 79.4 60.975 77.6C60.75 77.825 60.525 77.825 60.3 78.05C58.95 78.95 56.925 80.075 53.775 81.2C49.95 83 46.575 83.225 43.875 82.325L41.4 81.425L40.5 78.95C38.475 73.55 38.025 68.825 39.15 64.325C36 60.05 34.425 54.875 34.425 49.025C34.425 44.75 34.875 40.925 36.225 37.1C37.35 33.275 38.925 30.125 40.725 27.875C42.975 25.4 45.225 23.375 47.925 22.025C50.4 20.675 52.875 19.55 55.575 18.875C55.35 18.2 55.35 17.525 55.125 16.625V9.425C49.725 11.225 45.225 13.475 41.625 17.3C39.15 20 36.45 22.7 35.1 23.6C32.175 24.95 30.375 22.025 31.05 20.675C31.725 18.65 34.65 17.525 36.225 15.95C38.025 14.15 38.25 11.675 39.825 9.65C42.075 6.5 49.95 2.675 55.35 3.8V-3.4C29.025 4.025 11.25 27.875 11.25 54.875C11.25 71.525 17.775 87.05 29.925 98.75C41.4 109.775 56.25 115.625 72.225 115.625H74.7C105.975 114.5 131.4 89.075 132.75 57.8C134.1 30.575 117.225 5.825 91.575 -2.95z" />
    <glyph glyph-name="goodreads"
      unicode="&#xEA34;"
      horiz-adv-x="144" d="M29.925 14.6H41.625C42.075 14.6 42.525 14.825 42.75 13.925C44.775 4.025 51.3 -1.375 60.525 -4.075C68.175 -6.325 75.825 -6.325 83.475 -4.525C92.925 -2.5 99.225 3.35 102.6 12.575C104.85 18.65 105.525 24.95 105.75 31.25V46.1H105.525L104.85 44.75C98.55 32.6 87.525 25.85 75.15 25.4C46.125 24.275 27.45 41.375 26.775 74.9C26.55 81.65 27.225 88.175 29.025 94.475C34.425 114.5 49.5 127.775 72 128C89.1 128 100.35 117.2 104.625 108.2C104.85 107.975 105.075 107.525 105.3 107.75V125.075H117.675V31.7C117.675 9.65 110.25 -8.8 88.65 -13.975C69.3 -18.7 44.1 -15.325 33.75 2C31.5 5.825 30.375 10.1 29.925 14.6zM71.1 117.65C56.25 117.875 40.5 106.175 38.7 80.075C37.575 63.425 42.975 45.65 58.725 38.225C66.6 34.625 79.65 33.95 89.1 40.7C102.6 50.15 106.65 67.925 104.625 84.125C102.15 104.15 91.35 117.875 71.1 117.65z" />
    <glyph glyph-name="google-drive"
      unicode="&#xEA35;"
      horiz-adv-x="144" d="M95.4 39.35L49.275 119H94.5L140.625 39.35H95.4zM56.7 32.825L33.975 -7H121.275L144 32.825H56.7zM43.425 109.1L0 32.825L22.725 -7L66.6 69.275L43.425 109.1z" />
    <glyph glyph-name="google-pay"
      unicode="&#xEA36;"
      horiz-adv-x="144" d="M91.8 50.6C90.675 49.7 90.225 48.8 90.225 47.675S90.675 45.65 91.575 44.975C92.475 44.3 93.6 43.85 94.725 43.85C96.525 43.85 98.1 44.525 99.225 45.875C100.575 47.225 101.25 48.8 101.25 50.375C99.9 51.5 98.1 51.95 95.85 51.95C94.5 51.725 92.925 51.275 91.8 50.6zM76.275 69.275H69.3V58.025H76.275C77.85 58.025 79.2 58.7 80.325 59.6C82.575 61.85 82.35 65.45 80.1 67.7C79.2 68.6 77.625 69.275 76.275 69.275zM144 90.65V92C144 92.9 144 93.8 143.775 94.7C143.55 95.6 143.325 96.5 142.875 97.175C142.425 98.075 141.975 98.75 141.3 99.425C140.625 100.1 139.95 100.55 139.05 101C138.15 101.45 137.475 101.675 136.575 101.9C135.675 102.125 134.775 102.125 133.875 102.125H9.9C9 102.125 8.1 102.125 7.2 101.9C6.3 101.675 5.4 101.45 4.725 101C3.825 100.55 3.15 100.1 2.475 99.425C1.8 98.75 1.35 98.075 0.9 97.175C0.45 96.275 0.225 95.6 0 94.7V19.775C0 18.875 0 17.975 0.225 17.075C0.45 16.175 0.675 15.275 1.125 14.6C1.575 13.7 2.025 13.025 2.7 12.35C3.375 11.675 4.05 11.225 4.95 10.775C5.85 10.325 6.525 10.1 7.425 9.875C8.325 9.65 9.225 9.65 10.125 9.65H134.1C135 9.65 135.9 9.65 136.8 9.875C137.7 10.1 138.6 10.325 139.275 10.775C140.175 11.225 140.85 11.675 141.525 12.35C142.2 13.025 142.65 13.7 143.1 14.6C143.55 15.5 143.775 16.175 144 17.075V20V21.35V89.075V90.65zM47.25 42.95C44.325 40.025 40.05 38.45 35.1 38.45C28.125 38.45 21.825 42.5 18.675 48.575C15.975 53.75 15.975 60.05 18.675 65.225C21.825 71.525 28.125 75.575 35.1 75.575C39.6 75.575 44.1 74 47.475 70.85L42.3 65.45C40.5 67.25 37.8 68.375 35.325 68.15C30.6 68.15 26.55 64.775 24.975 60.5C24.3 58.25 24.3 55.775 24.975 53.3C26.325 48.8 30.375 45.65 35.325 45.65C37.8 45.65 39.825 46.325 41.625 47.45C43.65 48.8 44.775 50.825 45.225 53.075H35.325V60.5H52.65C52.875 59.15 52.875 58.025 52.875 56.675C52.65 51.05 50.85 46.325 47.25 42.95zM83.25 56.675C81.45 54.875 78.975 53.975 76.275 53.975H69.525V40.925H65.25V73.1H76.05C78.75 73.1 81.225 72.2 83.025 70.175C86.85 66.575 87.075 60.725 83.475 56.9C83.475 56.9 83.25 56.9 83.25 56.675zM105.3 40.7H101.475V43.85H101.25C99.45 41.375 97.2 40.025 94.5 40.025C92.025 40.025 90 40.7 88.425 42.275C86.85 43.625 85.95 45.65 85.95 47.675C85.95 49.925 86.85 51.725 88.425 53.075C90.225 54.425 92.475 55.1 95.175 55.1C97.65 55.1 99.675 54.65 101.25 53.75V54.65C101.25 56 100.575 57.35 99.675 58.25C98.55 59.15 97.2 59.825 95.625 59.825C93.375 59.825 91.575 58.925 90.225 56.9L86.625 59.15C88.65 62.075 91.575 63.425 95.4 63.425C98.325 63.425 100.8 62.525 102.6 60.95C104.4 59.375 105.3 57.125 105.3 54.2V40.7zM114.075 31.025H109.8L114.975 42.275L105.975 62.975H110.475L117 47L123.3 62.975H127.8L114.075 31.025z" />
    <glyph glyph-name="google-wallet"
      unicode="&#xEA37;"
      horiz-adv-x="144" d="M50.4 97.625C62.55 78.05 71.1 61.175 77.4 45.425C74.7 34.625 71.325 24.05 67.275 13.925C63 30.8 58.725 46.55 49.275 61.625C51.525 73.1 50.175 85.025 50.4 97.625zM35.1 74H5.175C3.15 74 1.8 71.525 3.15 69.95C16.65 52.4 26.1 32.15 32.625 9.65H65.925C60.75 32.15 53.55 52.625 39.375 71.75C38.25 73.1 36.675 74 35.1 74zM50.4 102.35C72.45 67.475 92.25 26.975 94.95 -16H131.4C127.575 28.325 109.575 69.275 85.5 102.35H50.4zM131.4 124.4C130.725 126.65 128.7 128 126.45 128H98.1C96.3 128 95.175 126.425 95.625 124.625C99.9 109.775 102.825 94.025 104.175 77.6C119.7 50.15 129.825 20.45 133.2 -9.25C138.375 10.1 141.3 33.725 141.3 56C141.525 79.625 137.475 102.575 131.4 124.4z" />
    <glyph glyph-name="google"
      unicode="&#xEA38;"
      horiz-adv-x="144" d="M140.4 62.525H73.8V42.95H121.5C119.025 15.5 96.525 3.575 75.15 3.575C47.7 3.575 23.4 24.95 23.4 56C23.4 85.925 46.575 108.425 75.15 108.425C97.2 108.425 110.25 94.25 110.25 94.25L123.75 108.425S105.75 128 74.475 128C33.3 128 1.8 93.35 1.8 56C1.8 19.775 31.725 -16 75.6 -16C114.3 -16 142.2 10.1 142.2 49.475C141.75 57.8 140.4 62.525 140.4 62.525z" />
    <glyph glyph-name="hacker-news"
      unicode="&#xEA39;"
      horiz-adv-x="144" d="M0 128V-16H144V128H0zM6.75 64.55S6.75 64.775 6.75 64.55C6.75 64.775 6.75 64.55 6.75 64.55zM76.95 47.225V14.825H66.825V47.9L41.175 97.175H53.1C69.975 65.675 68.85 64.55 72.225 56.9C76.275 65.675 74.025 64.775 91.8 97.175H103.05L76.95 47.225z" />
    <glyph glyph-name="html5"
      unicode="&#xEA3A;"
      horiz-adv-x="144" d="M142.2 116.525C140.85 118.1 138.6 119 136.35 119.225H7.65C5.4 119.225 3.375 118.325 1.8 116.75C0.45 114.95 -0.225 112.925 0 110.9L11.475 10.1C11.7 7.175 13.95 4.475 17.1 3.8L68.175 -7C69.3 -7.225 70.425 -7.225 71.55 -7.225S73.8 -7.225 74.925 -7L126 3.8C128.7 4.475 131.4 6.725 131.625 9.875L144 110.9C144.225 112.925 143.55 114.95 142.2 116.525zM121.05 14.375L72.9 4.25C72.225 4.025 71.1 4.025 70.65 4.25L22.5 14.375L11.7 107.975H132.3L121.05 14.375zM29.7 95.375L29.475 95.15C27.225 92.675 26.55 89.75 27 86.825L30.6 69.725C31.725 64.55 36.45 60.95 42.075 60.95H97.875L93.15 40.925H92.925L70.875 33.95H70.2L48.15 40.925H47.925L45.9 51.275C45.225 54.425 42.3 56.225 39.15 55.55C36 54.875 34.2 51.95 34.875 48.8L37.125 38.225C38.025 34.4 40.95 31.25 44.775 29.9L66.825 22.925C67.95 22.475 69.3 22.25 70.65 22.25S73.125 22.475 74.475 22.925L96.525 29.9C100.35 31.025 103.275 34.175 104.175 37.775L109.125 58.925C109.8 62.075 109.125 65.225 107.1 67.7C104.85 70.4 101.475 72.2 97.65 72.2H41.625L38.7 87.05H108.45C111.6 87.05 114.075 89.525 114.075 92.675S111.6 98.3 108.45 98.3H37.35C34.425 98.3 31.725 97.175 29.7 95.375z" />
    <glyph glyph-name="instagram-filled"
      unicode="&#xEA3B;"
      horiz-adv-x="144" d="M111.15 102.575C109.8 102.575 108.675 102.125 107.775 101.225C106.65 100.55 106.425 98.975 106.425 97.85C106.425 96.5 106.875 95.375 107.775 94.475C109.575 92.675 113.175 92.675 114.975 94.475C116.1 95.15 116.325 96.725 116.325 98.075C116.325 99.2 115.65 100.55 114.975 101.45C114.075 102.125 112.5 102.575 111.15 102.575zM72.225 82.775C57.15 82.775 45.45 70.625 45.45 56S57.375 29.225 72.225 29.225C86.85 29.225 99 41.375 99 56C99 70.85 86.85 82.775 72.225 82.775zM101.475 128H42.525C18.9 128 0 109.1 0 85.475V26.75C0 2.9 18.9 -16 42.525 -16H101.25C125.1 -16 144 2.9 144 26.525V85.475C144 109.1 125.1 128 101.475 128zM72.225 20.675C52.65 20.675 36.9 36.65 36.9 56S52.65 91.325 72.225 91.325C91.575 91.325 107.325 75.35 107.325 56S91.575 20.675 72.225 20.675zM125.1 97.625C124.875 94.025 123.525 90.65 121.05 88.175S115.2 84.125 111.375 84.125C107.775 84.125 104.4 85.475 101.7 88.175C99.225 90.65 97.65 94.025 97.65 97.85S99 104.825 101.7 107.525C104.175 110 107.55 111.575 111.375 111.575C114.975 111.575 118.575 110.225 121.05 107.525C123.3 104.6 125.1 101.225 125.1 97.625z" />
    <glyph glyph-name="instagram-original"
      unicode="&#xEA3C;"
      horiz-adv-x="144" d="M143.55 85.7C143.1 93.35 141.975 98.525 140.175 103.25C138.375 107.975 135.9 112.025 131.85 116.075S123.975 122.375 119.25 124.175C114.75 125.975 109.35 127.1 101.7 127.55C94.05 128 91.575 128 72 128S49.95 128 42.3 127.55C34.65 127.1 29.475 125.975 24.75 124.175C20.025 122.375 15.975 119.9 12.15 115.85S5.625 107.975 3.825 103.25C2.025 98.75 0.9 93.35 0.45 85.7C0 78.05 0 75.575 0 56S0 33.95 0.45 26.3C0.9 18.65 2.025 13.475 3.825 8.75C5.625 4.025 8.1 -0.025 12.15 -4.075C16.2 -8.125 20.25 -10.6 24.975 -12.4C29.475 -14.2 34.875 -15.325 42.525 -15.775C49.95 -16 52.425 -16 72 -16S94.05 -16 101.7 -15.55C109.35 -15.1 114.525 -13.975 119.25 -12.175C123.975 -10.375 128.025 -7.9 132.075 -3.85C136.125 0.2 138.6 4.25 140.4 8.975C142.2 13.475 143.325 18.875 143.775 26.525C144 33.95 144 36.425 144 56S144 78.05 143.55 85.7zM130.5 26.975C130.275 20 128.925 16.175 128.025 13.7C126.675 10.325 125.1 7.85 122.625 5.375C120.15 2.9 117.675 1.325 114.3 -0.025C111.825 -0.925 108 -2.275 101.025 -2.5C93.375 -2.95 91.125 -2.95 72 -2.95S50.4 -2.95 42.975 -2.5C36 -2.275 32.175 -0.925 29.7 -0.025C26.325 1.325 23.85 2.9 21.375 5.375C18.9 7.85 17.325 10.325 15.975 13.7C15.075 16.175 13.725 20 13.5 26.975C13.05 34.4 13.05 36.65 13.05 56S13.05 77.6 13.5 85.025C13.725 92 15.075 95.825 15.975 98.3C17.325 101.675 18.9 104.15 21.375 106.625C23.85 109.1 26.325 110.675 29.7 112.025C32.175 112.925 36 114.275 42.975 114.5C50.625 114.95 52.875 114.95 72 114.95S93.6 114.95 101.025 114.5C108 114.275 111.825 112.925 114.3 112.025C117.675 110.675 120.15 109.1 122.625 106.625C125.1 104.15 126.675 101.675 128.025 98.3C128.925 95.825 130.275 92 130.5 85.025C130.95 77.375 130.95 75.125 130.95 56S130.95 34.4 130.5 26.975zM72 92.9C51.525 92.9 35.1 76.25 35.1 56C35.1 35.525 51.75 19.1 72 19.1S108.9 35.525 108.9 56S92.475 92.9 72 92.9zM72 31.925C58.725 31.925 47.925 42.725 47.925 56S58.725 80.075 72 80.075S96.075 69.275 96.075 56S85.275 31.925 72 31.925zM101.925 94.475A8.55 8.55 0 0 1 119.025 94.475A8.55 8.55 0 0 1 101.925 94.475" />
    </font>
</defs>
</svg>
